  0
SECTION
  2
HEADER
  9
$ACADVER
  1
AC1014
  9
$ACADMAINTVER
 70
     9
  9
$DWGCODEPAGE
  3
ANSI_932
  9
$INSBASE
 10
0.0
 20
0.0
 30
0.0
  9
$EXTMIN
 10
11.597553655523
 20
18.39593372536
 30
0.0
  9
$EXTMAX
 10
903.986963080834
 20
541.458255095523
 30
0.0
  9
$LIMMIN
 10
-360.747566795242
 20
4.457354754526
  9
$LIMMAX
 10
-162.153696144267
 20
287.675440264018
  9
$ORTHOMODE
 70
     0
  9
$REGENMODE
 70
     1
  9
$FILLMODE
 70
     1
  9
$QTEXTMODE
 70
     0
  9
$MIRRTEXT
 70
     1
  9
$DRAGMODE
 70
     2
  9
$LTSCALE
 40
1.0
  9
$OSMODE
 70
    32
  9
$ATTMODE
 70
     1
  9
$TEXTSIZE
 40
2.333873885063
  9
$TRACEWID
 40
1.0
  9
$TEXTSTYLE
  7
STANDARD
  9
$CLAYER
  8
寸法線
  9
$CELTYPE
  6
BYLAYER
  9
$CECOLOR
 62
   256
  9
$CELTSCALE
 40
10.0
  9
$DELOBJ
 70
     1
  9
$DISPSILH
 70
     0
  9
$DIMSCALE
 40
1.0
  9
$DIMASZ
 40
6.0
  9
$DIMEXO
 40
0.625
  9
$DIMDLI
 40
3.75
  9
$DIMRND
 40
0.0
  9
$DIMDLE
 40
0.0
  9
$DIMEXE
 40
1.25
  9
$DIMTP
 40
0.1
  9
$DIMTM
 40
0.1
  9
$DIMTXT
 40
5.0
  9
$DIMCEN
 40
2.5
  9
$DIMTSZ
 40
0.0
  9
$DIMTOL
 70
     0
  9
$DIMLIM
 70
     0
  9
$DIMTIH
 70
     0
  9
$DIMTOH
 70
     0
  9
$DIMSE1
 70
     0
  9
$DIMSE2
 70
     0
  9
$DIMTAD
 70
     1
  9
$DIMZIN
 70
     8
  9
$DIMBLK
  1
OPEN30
  9
$DIMASO
 70
     1
  9
$DIMSHO
 70
     1
  9
$DIMPOST
  1

  9
$DIMAPOST
  1

  9
$DIMALT
 70
     0
  9
$DIMALTD
 70
     2
  9
$DIMALTF
 40
0.0394
  9
$DIMLFAC
 40
1.0
  9
$DIMTOFL
 70
     1
  9
$DIMTVP
 40
1.0
  9
$DIMTIX
 70
     0
  9
$DIMSOXD
 70
     0
  9
$DIMSAH
 70
     0
  9
$DIMBLK1
  1

  9
$DIMBLK2
  1

  9
$DIMSTYLE
  2
ISO-25
  9
$DIMCLRD
 70
     0
  9
$DIMCLRE
 70
     0
  9
$DIMCLRT
 70
     0
  9
$DIMTFAC
 40
1.0
  9
$DIMGAP
 40
0.625
  9
$DIMJUST
 70
     0
  9
$DIMSD1
 70
     0
  9
$DIMSD2
 70
     0
  9
$DIMTOLJ
 70
     1
  9
$DIMTZIN
 70
     0
  9
$DIMALTZ
 70
     0
  9
$DIMALTTZ
 70
     0
  9
$DIMFIT
 70
     3
  9
$DIMUPT
 70
     0
  9
$DIMUNIT
 70
     2
  9
$DIMDEC
 70
     1
  9
$DIMTDEC
 70
     1
  9
$DIMALTU
 70
     2
  9
$DIMALTTD
 70
     2
  9
$DIMTXSTY
  7
STANDARD
  9
$DIMAUNIT
 70
     0
  9
$LUNITS
 70
     2
  9
$LUPREC
 70
     4
  9
$SKETCHINC
 40
1.0
  9
$FILLETRAD
 40
6.5
  9
$AUNITS
 70
     0
  9
$AUPREC
 70
     0
  9
$MENU
  1
.
  9
$ELEVATION
 40
0.0
  9
$PELEVATION
 40
0.0
  9
$THICKNESS
 40
0.0
  9
$LIMCHECK
 70
     0
  9
$CHAMFERA
 40
10.0
  9
$CHAMFERB
 40
10.0
  9
$CHAMFERC
 40
20.0
  9
$CHAMFERD
 40
0.0
  9
$SKPOLY
 70
     0
  9
$TDCREATE
 40
2450576.597302431
  9
$TDUPDATE
 40
2457191.670449907
  9
$TDINDWG
 40
1.4135479745
  9
$TDUSRTIMER
 40
1.4135479745
  9
$USRTIMER
 70
     1
  9
$ANGBASE
 50
0.0
  9
$ANGDIR
 70
     0
  9
$PDMODE
 70
     0
  9
$PDSIZE
 40
0.0
  9
$PLINEWID
 40
0.0
  9
$COORDS
 70
     1
  9
$SPLFRAME
 70
     0
  9
$SPLINETYPE
 70
     6
  9
$SPLINESEGS
 70
     8
  9
$ATTDIA
 70
     0
  9
$ATTREQ
 70
     1
  9
$HANDLING
 70
     1
  9
$HANDSEED
  5
6076
  9
$SURFTAB1
 70
     6
  9
$SURFTAB2
 70
     6
  9
$SURFTYPE
 70
     6
  9
$SURFU
 70
     6
  9
$SURFV
 70
     6
  9
$UCSNAME
  2

  9
$UCSORG
 10
0.0
 20
0.0
 30
0.0
  9
$UCSXDIR
 10
1.0
 20
0.0
 30
0.0
  9
$UCSYDIR
 10
0.0
 20
1.0
 30
0.0
  9
$PUCSNAME
  2

  9
$PUCSORG
 10
0.0
 20
0.0
 30
0.0
  9
$PUCSXDIR
 10
1.0
 20
0.0
 30
0.0
  9
$PUCSYDIR
 10
0.0
 20
1.0
 30
0.0
  9
$USERI1
 70
     0
  9
$USERI2
 70
     0
  9
$USERI3
 70
     0
  9
$USERI4
 70
     0
  9
$USERI5
 70
     0
  9
$USERR1
 40
0.0
  9
$USERR2
 40
0.0
  9
$USERR3
 40
0.0
  9
$USERR4
 40
0.0
  9
$USERR5
 40
0.0
  9
$WORLDVIEW
 70
     1
  9
$SHADEDGE
 70
     3
  9
$SHADEDIF
 70
    70
  9
$TILEMODE
 70
     0
  9
$MAXACTVP
 70
    16
  9
$PINSBASE
 10
0.0
 20
0.0
 30
0.0
  9
$PLIMCHECK
 70
     0
  9
$PEXTMIN
 10
4.746305129083
 20
3.457123274536
 30
0.0
  9
$PEXTMAX
 10
404.746305129083
 20
283.457123274536
 30
0.0
  9
$PLIMMIN
 10
-7.007122192383
 20
-7.007118782997
  9
$PLIMMAX
 10
417.718108215332
 20
293.315290427208
  9
$UNITMODE
 70
     0
  9
$VISRETAIN
 70
     0
  9
$PLINEGEN
 70
     0
  9
$PSLTSCALE
 70
     1
  9
$TREEDEPTH
 70
  3020
  9
$PICKSTYLE
 70
     1
  9
$CMLSTYLE
  2
STANDARD
  9
$CMLJUST
 70
     0
  9
$CMLSCALE
 40
1.0
  9
$PROXYGRAPHICS
 70
     1
  9
$MEASUREMENT
 70
     1
  0
ENDSEC
  0
SECTION
  2
CLASSES
  0
CLASS
  1
ACDBDICTIONARYWDFLT
  2
AcDbDictionaryWithDefault
  3
ObjectDBX Classes
 90
        0
280
     0
281
     0
  0
CLASS
  1
ACDBPLACEHOLDER
  2
AcDbPlaceHolder
  3
ObjectDBX Classes
 90
        0
280
     0
281
     0
  0
CLASS
  1
LAYOUT
  2
AcDbLayout
  3
ObjectDBX Classes
 90
        0
280
     0
281
     0
  0
CLASS
  1
SORTENTSTABLE
  2
AcDbSortentsTable
  3
ObjectDBX Classes
 90
        0
280
     0
281
     0
  0
CLASS
  1
VISUALSTYLE
  2
AcDbVisualStyle
  3
ObjectDBX Classes
 90
     4095
280
     0
281
     0
  0
CLASS
  1
SCALE
  2
AcDbScale
  3
ObjectDBX Classes
 90
     1153
280
     0
281
     0
  0
CLASS
  1
MATERIAL
  2
AcDbMaterial
  3
ObjectDBX Classes
 90
     1153
280
     0
281
     0
  0
CLASS
  1
TABLESTYLE
  2
AcDbTableStyle
  3
ObjectDBX Classes
 90
     4095
280
     0
281
     0
  0
CLASS
  1
MLEADERSTYLE
  2
AcDbMLeaderStyle
  3
ACDB_MLEADERSTYLE_CLASS
 90
     4095
280
     0
281
     0
  0
CLASS
  1
SUN
  2
AcDbSun
  3
SCENEOE
 90
     1153
280
     0
281
     0
  0
CLASS
  1
DICTIONARYVAR
  2
AcDbDictionaryVar
  3
ObjectDBX Classes
 90
        0
280
     0
281
     0
  0
CLASS
  1
XRECORD
  2
AcDbXrecord
  3
ObjectDBX Classes
 90
        0
280
     0
281
     0
  0
CLASS
  1
LWPOLYLINE
  2
AcDbPolyline
  3
ObjectDBX Classes
 90
        0
280
     0
281
     1
  0
CLASS
  1
HATCH
  2
AcDbHatch
  3
ObjectDBX Classes
 90
        0
280
     0
281
     1
  0
ENDSEC
  0
SECTION
  2
TABLES
  0
TABLE
  2
VPORT
  5
8
102
{ACAD_XDICTIONARY
360
606D
102
}
330
0
100
AcDbSymbolTable
 70
     1
  0
VPORT
  5
5A8D
330
8
100
AcDbSymbolTableRecord
100
AcDbViewportTableRecord
  2
*ACTIVE
 70
     0
 10
0.0
 20
0.0
 11
1.0
 21
1.0
 12
584.528171067763
 22
456.402070097972
 13
0.0
 23
0.0
 14
1.0
 24
1.0
 15
0.0
 25
0.0
 16
0.0
 26
0.0
 36
1.0
 17
0.0
 27
0.0
 37
0.0
 40
547.213496441411
 41
1.884057971014
 42
50.0
 43
0.0
 44
0.0
 50
0.0
 51
0.0
 71
    16
 72
   100
 73
     1
 74
     0
 75
     0
 76
     0
 77
     0
 78
     0
  0
ENDTAB
  0
TABLE
  2
LTYPE
  5
5
330
0
100
AcDbSymbolTable
 70
     5
  0
LTYPE
  5
14
330
5
100
AcDbSymbolTableRecord
100
AcDbLinetypeTableRecord
  2
BYBLOCK
 70
     0
  3

 72
    65
 73
     0
 40
0.0
  0
LTYPE
  5
15
330
5
100
AcDbSymbolTableRecord
100
AcDbLinetypeTableRecord
  2
BYLAYER
 70
     0
  3

 72
    65
 73
     0
 40
0.0
  0
LTYPE
  5
16
330
5
100
AcDbSymbolTableRecord
100
AcDbLinetypeTableRecord
  2
CONTINUOUS
 70
     0
  3
Solid line
 72
    65
 73
     0
 40
0.0
  0
LTYPE
  5
1EC
330
5
100
AcDbSymbolTableRecord
100
AcDbLinetypeTableRecord
  2
CENTER
 70
     0
  3
____ _ ____ _ ____ _ ____ _ ____ _ ____ _ ____ 
 72
    65
 73
     4
 40
2.0
 49
1.25
 74
     0
 49
-0.25
 74
     0
 49
0.25
 74
     0
 49
-0.25
 74
     0
  0
LTYPE
  5
1ED
330
5
100
AcDbSymbolTableRecord
100
AcDbLinetypeTableRecord
  2
DASHED
 70
     0
  3
__ __ __ __ __ __ __ __ __ __ __ __ __ __ __ __
 72
    65
 73
     2
 40
0.75
 49
0.5
 74
     0
 49
-0.25
 74
     0
  0
LTYPE
  5
4D7E
330
5
100
AcDbSymbolTableRecord
100
AcDbLinetypeTableRecord
  2
DASHDOT
 70
     0
  3
一点鎖線
 72
    65
 73
     4
 40
25.6
 49
20.0
 74
     0
 49
-2.0
 74
     0
 49
1.6
 74
     0
 49
-2.0
 74
     0
  0
LTYPE
  5
4D7F
330
5
100
AcDbSymbolTableRecord
100
AcDbLinetypeTableRecord
  2
DIVIDE
 70
     0
  3
二点鎖線
 72
    65
 73
     6
 40
31.2
 49
20.0
 74
     0
 49
-2.4
 74
     0
 49
2.0
 74
     0
 49
-2.4
 74
     0
 49
2.0
 74
     0
 49
-2.4
 74
     0
  0
ENDTAB
  0
TABLE
  2
LAYER
  5
2
102
{ACAD_XDICTIONARY
360
29EA
102
}
330
0
100
AcDbSymbolTable
 70
    12
  0
LAYER
  5
F
330
2
100
AcDbSymbolTableRecord
100
AcDbLayerTableRecord
  2
0
 70
     0
 62
     7
  6
CONTINUOUS
  0
LAYER
  5
61
330
2
100
AcDbSymbolTableRecord
100
AcDbLayerTableRecord
  2
図枠太線
 70
     0
 62
   251
  6
CONTINUOUS
  0
LAYER
  5
62
330
2
100
AcDbSymbolTableRecord
100
AcDbLayerTableRecord
  2
図枠細線
 70
     0
 62
   252
  6
CONTINUOUS
  0
LAYER
  5
63
330
2
100
AcDbSymbolTableRecord
100
AcDbLayerTableRecord
  2
図枠ロゴマーク
 70
     0
 62
   253
  6
CONTINUOUS
  0
LAYER
  5
1EF
330
2
100
AcDbSymbolTableRecord
100
AcDbLayerTableRecord
  2
外形線
 70
     0
 62
     7
  6
CONTINUOUS
  0
LAYER
  5
1F0
330
2
100
AcDbSymbolTableRecord
100
AcDbLayerTableRecord
  2
寸法線
 70
     0
 62
     1
  6
CONTINUOUS
  0
LAYER
  5
1F1
330
2
100
AcDbSymbolTableRecord
100
AcDbLayerTableRecord
  2
中心線
 70
     0
 62
     4
  6
CENTER
  0
LAYER
  5
1F4
330
2
100
AcDbSymbolTableRecord
100
AcDbLayerTableRecord
  2
DEFPOINTS
 70
     0
 62
     7
  6
CONTINUOUS
  0
LAYER
  5
2AA2
330
2
100
AcDbSymbolTableRecord
100
AcDbLayerTableRecord
  2
下書線
 70
     0
 62
     2
  6
CONTINUOUS
  0
LAYER
  5
2AA4
330
2
100
AcDbSymbolTableRecord
100
AcDbLayerTableRecord
  2
細線
 70
     0
 62
     6
  6
CONTINUOUS
  0
LAYER
  5
3C9C
330
2
100
AcDbSymbolTableRecord
100
AcDbLayerTableRecord
  2
LAY-1
 70
     0
 62
     7
  6
CONTINUOUS
  0
LAYER
  5
4D80
330
2
100
AcDbSymbolTableRecord
100
AcDbLayerTableRecord
  2
隠れ線
 70
     0
 62
     3
  6
DASHED
  0
ENDTAB
  0
TABLE
  2
STYLE
  5
3
330
0
100
AcDbSymbolTable
 70
     3
  0
STYLE
  5
10
330
3
100
AcDbSymbolTableRecord
100
AcDbTextStyleTableRecord
  2
STANDARD
 70
     0
 40
0.0
 41
1.0
 50
0.0
 71
     0
 42
2.333873885063
  3
ISOCP
  4
bigfont.shx
  0
STYLE
  5
64
330
3
100
AcDbSymbolTableRecord
100
AcDbTextStyleTableRecord
  2
EXCADSTD
 70
     0
 40
0.0
 41
1.0
 50
0.0
 71
     0
 42
0.2
  3
monotxt
  4
bigfont
  0
STYLE
  5
433F
330
3
100
AcDbSymbolTableRecord
100
AcDbTextStyleTableRecord
  2
EXCADVERT
 70
     4
 40
0.0
 41
1.0
 50
0.0
 71
     0
 42
0.286885
  3
monotxt
  4
bigfont
  0
ENDTAB
  0
TABLE
  2
VIEW
  5
6
330
0
100
AcDbSymbolTable
 70
     0
  0
ENDTAB
  0
TABLE
  2
UCS
  5
7
330
0
100
AcDbSymbolTable
 70
     0
  0
ENDTAB
  0
TABLE
  2
APPID
  5
9
330
0
100
AcDbSymbolTable
 70
     3
  0
APPID
  5
11
330
9
100
AcDbSymbolTableRecord
100
AcDbRegAppTableRecord
  2
ACAD
 70
     0
  0
APPID
  5
5FDA
330
9
100
AcDbSymbolTableRecord
100
AcDbRegAppTableRecord
  2
ACADANNOTATIVE
 70
     0
  0
APPID
  5
6075
330
9
100
AcDbSymbolTableRecord
100
AcDbRegAppTableRecord
  2
ACAD_MLEADERVER
 70
     0
  0
ENDTAB
  0
TABLE
  2
DIMSTYLE
  5
A
330
0
100
AcDbSymbolTable
 70
     2
  0
DIMSTYLE
105
1D
330
A
100
AcDbSymbolTableRecord
100
AcDbDimStyleTableRecord
  2
STANDARD
 70
     0
  3

  4

  5

  6

  7

 40
1.0
 41
0.18
 42
0.0625
 43
0.38
 44
0.18
 45
0.0
 46
0.0
 47
0.0
 48
0.0
140
0.18
141
0.09
142
0.0
143
25.4
144
1.0
145
0.0
146
1.0
147
0.09
 71
     0
 72
     0
 73
     1
 74
     1
 75
     0
 76
     0
 77
     0
 78
     0
170
     0
171
     2
172
     0
173
     0
174
     0
175
     0
176
     0
177
     0
178
     0
270
     2
271
     4
272
     4
273
     2
274
     2
340
10
275
     0
280
     0
281
     0
282
     0
283
     1
284
     0
285
     0
286
     0
287
     3
288
     0
  0
DIMSTYLE
105
24
102
{ACAD_REACTORS
330
401E
330
43DD
330
43DE
330
43DF
330
43E0
330
43E1
330
43E2
330
4973
330
4F2B
330
4F2D
330
4F2E
330
4F2F
330
4F30
330
5E17
330
5E18
330
5E19
330
5E1D
330
5E1E
330
6039
102
}
330
A
100
AcDbSymbolTableRecord
100
AcDbDimStyleTableRecord
  2
ISO-25
 70
     0
  3

  4

  5

  6

  7

 40
1.0
 41
2.5
 42
0.625
 43
3.75
 44
1.25
 45
0.0
 46
0.0
 47
0.0
 48
0.0
140
2.5
141
2.5
142
0.0
143
0.0394
144
1.0
145
1.0
146
1.0
147
0.625
 71
     0
 72
     0
 73
     1
 74
     0
 75
     0
 76
     0
 77
     1
 78
     8
170
     0
171
     2
172
     1
173
     0
174
     0
175
     0
176
     0
177
     0
178
     0
270
     2
271
     4
272
     4
273
     2
274
     2
340
10
275
     0
280
     0
281
     0
282
     0
283
     1
284
     0
285
     0
286
     0
287
     3
288
     0
  0
ENDTAB
  0
TABLE
  2
BLOCK_RECORD
  5
1
330
0
100
AcDbSymbolTable
 70
    54
  0
BLOCK_RECORD
  5
1A
330
1
100
AcDbSymbolTableRecord
100
AcDbBlockTableRecord
  2
*MODEL_SPACE
  0
BLOCK_RECORD
  5
28FB
330
1
100
AcDbSymbolTableRecord
100
AcDbBlockTableRecord
  2
*PAPER_SPACE
  0
BLOCK_RECORD
  5
2A32
330
1
100
AcDbSymbolTableRecord
100
AcDbBlockTableRecord
  2
A3横用_タイトル
1001
ACAD
1000
DesignCenter Data
1002
{
1070
     1
1070
     4
1002
}
  0
BLOCK_RECORD
  5
2AEB
330
1
100
AcDbSymbolTableRecord
100
AcDbBlockTableRecord
  2
_OPEN30
  0
BLOCK_RECORD
  5
3A78
330
1
100
AcDbSymbolTableRecord
100
AcDbBlockTableRecord
  2
ケース外形図_HL-100
  0
BLOCK_RECORD
  5
3F30
330
1
100
AcDbSymbolTableRecord
100
AcDbBlockTableRecord
  2
ケース外形図_HL101
  0
BLOCK_RECORD
  5
3F7D
330
1
100
AcDbSymbolTableRecord
100
AcDbBlockTableRecord
  2
A$C16143EC0
  0
BLOCK_RECORD
  5
401F
330
1
100
AcDbSymbolTableRecord
100
AcDbBlockTableRecord
  2
*D5
  0
BLOCK_RECORD
  5
4200
330
1
100
AcDbSymbolTableRecord
100
AcDbBlockTableRecord
  2
パドル_W1
  0
BLOCK_RECORD
  5
4218
330
1
100
AcDbSymbolTableRecord
100
AcDbBlockTableRecord
  2
パドル_W1立面図
  0
BLOCK_RECORD
  5
42BD
330
1
100
AcDbSymbolTableRecord
100
AcDbBlockTableRecord
  2
ケース外形図_PRL-101
  0
BLOCK_RECORD
  5
4323
330
1
100
AcDbSymbolTableRecord
100
AcDbBlockTableRecord
  2
A$C480F1F2B
  0
BLOCK_RECORD
  5
4478
330
1
100
AcDbSymbolTableRecord
100
AcDbBlockTableRecord
  2
*D10
  0
BLOCK_RECORD
  5
4484
330
1
100
AcDbSymbolTableRecord
100
AcDbBlockTableRecord
  2
*D11
  0
BLOCK_RECORD
  5
4492
330
1
100
AcDbSymbolTableRecord
100
AcDbBlockTableRecord
  2
*D12
  0
BLOCK_RECORD
  5
449E
330
1
100
AcDbSymbolTableRecord
100
AcDbBlockTableRecord
  2
*D13
  0
BLOCK_RECORD
  5
44AA
330
1
100
AcDbSymbolTableRecord
100
AcDbBlockTableRecord
  2
*D14
  0
BLOCK_RECORD
  5
44B6
330
1
100
AcDbSymbolTableRecord
100
AcDbBlockTableRecord
  2
*D15
  0
BLOCK_RECORD
  5
4974
330
1
100
AcDbSymbolTableRecord
100
AcDbBlockTableRecord
  2
*D16
  0
BLOCK_RECORD
  5
5003
330
1
100
AcDbSymbolTableRecord
100
AcDbBlockTableRecord
  2
*D17
  0
BLOCK_RECORD
  5
501E
330
1
100
AcDbSymbolTableRecord
100
AcDbBlockTableRecord
  2
*D18
  0
BLOCK_RECORD
  5
502A
330
1
100
AcDbSymbolTableRecord
100
AcDbBlockTableRecord
  2
*D19
  0
BLOCK_RECORD
  5
5036
330
1
100
AcDbSymbolTableRecord
100
AcDbBlockTableRecord
  2
*D20
  0
BLOCK_RECORD
  5
5042
330
1
100
AcDbSymbolTableRecord
100
AcDbBlockTableRecord
  2
*D21
  0
BLOCK_RECORD
  5
5F0B
330
1
100
AcDbSymbolTableRecord
100
AcDbBlockTableRecord
  2
*D48
  0
BLOCK_RECORD
  5
5F1A
330
1
100
AcDbSymbolTableRecord
100
AcDbBlockTableRecord
  2
*D49
  0
BLOCK_RECORD
  5
5F26
330
1
100
AcDbSymbolTableRecord
100
AcDbBlockTableRecord
  2
*D50
  0
BLOCK_RECORD
  5
5F32
330
1
100
AcDbSymbolTableRecord
100
AcDbBlockTableRecord
  2
*D51
  0
BLOCK_RECORD
  5
5F40
330
1
100
AcDbSymbolTableRecord
100
AcDbBlockTableRecord
  2
*D52
  0
BLOCK_RECORD
  5
603A
330
1
100
AcDbSymbolTableRecord
100
AcDbBlockTableRecord
  2
*D53
  0
ENDTAB
  0
ENDSEC
  0
SECTION
  2
BLOCKS
  0
BLOCK
  5
1B
330
1A
100
AcDbEntity
  8
0
100
AcDbBlockBegin
  2
*MODEL_SPACE
 70
     0
 10
0.0
 20
0.0
 30
0.0
  3
*MODEL_SPACE
  1

  0
ENDBLK
  5
1C
330
1A
100
AcDbEntity
  8
0
100
AcDbBlockEnd
  0
BLOCK
  5
28FD
330
28FB
100
AcDbEntity
 67
     1
  8
0
 48
10.0
100
AcDbBlockBegin
  2
*PAPER_SPACE
 70
     0
 10
0.0
 20
0.0
 30
0.0
  3
*PAPER_SPACE
  1

  0
ENDBLK
  5
28FE
330
28FB
100
AcDbEntity
 67
     1
  8
0
 48
10.0
100
AcDbBlockEnd
  0
BLOCK
  5
2A33
330
2A32
100
AcDbEntity
  8
0
100
AcDbBlockBegin
  2
A3横用_タイトル
 70
     0
 10
0.0
 20
0.0
 30
0.0
  3
A3横用_タイトル
  1
A3横用_タイトル
  0
LINE
  5
2A34
330
2A32
100
AcDbEntity
  8
図枠細線
  6
CONTINUOUS
 62
   252
100
AcDbLine
 10
205.098414535793
 20
33.525959753527
 30
0.0
 11
305.098414535793
 21
33.525959753527
 31
0.0
  0
LINE
  5
2A35
330
2A32
100
AcDbEntity
  8
図枠太線
  6
CONTINUOUS
 62
   251
100
AcDbLine
 10
205.098414535793
 20
23.525959753527
 30
0.0
 11
305.098414535793
 21
23.525959753527
 31
0.0
  0
LINE
  5
2A36
330
2A32
100
AcDbEntity
  8
図枠細線
  6
CONTINUOUS
100
AcDbLine
 10
5.098414535793
 20
23.525959753527
 30
0.0
 11
105.098414535793
 21
23.525959753527
 31
0.0
  0
LINE
  5
2A37
330
2A32
100
AcDbEntity
  8
図枠細線
  6
CONTINUOUS
 62
   252
100
AcDbLine
 10
5.098414535793
 20
36.725957753527
 30
0.0
 11
105.098414535793
 21
36.725957753527
 31
0.0
  0
LINE
  5
2A38
330
2A32
100
AcDbEntity
  8
図枠細線
  6
CONTINUOUS
 62
   252
100
AcDbLine
 10
5.098414535793
 20
30.125957753527
 30
0.0
 11
105.098414535793
 21
30.125957753527
 31
0.0
  0
LINE
  5
2A39
330
2A32
100
AcDbEntity
  8
図枠細線
  6
CONTINUOUS
 62
   252
100
AcDbLine
 10
5.098414535793
 20
16.725959753527
 30
0.0
 11
105.098414535793
 21
16.725959753527
 31
0.0
  0
LINE
  5
2A3A
330
2A32
100
AcDbEntity
  8
図枠細線
  6
CONTINUOUS
 62
   252
100
AcDbLine
 10
5.098414535793
 20
10.125959753527
 30
0.0
 11
105.098414535793
 21
10.125959753527
 31
0.0
  0
LINE
  5
2A3B
330
2A32
100
AcDbEntity
  8
図枠細線
  6
CONTINUOUS
100
AcDbLine
 10
105.098414535793
 20
23.525961753527
 30
0.0
 11
205.098414535793
 21
23.525959753527
 31
0.0
  0
LINE
  5
2A3C
330
2A32
100
AcDbEntity
  8
図枠細線
  6
CONTINUOUS
 62
   252
100
AcDbLine
 10
138.398414535793
 20
43.525959753527
 30
0.0
 11
138.398414535793
 21
18.525957753527
 31
0.0
  0
LINE
  5
2A3D
330
2A32
100
AcDbEntity
  8
図枠細線
  6
CONTINUOUS
 62
   252
100
AcDbLine
 10
171.698414535793
 20
43.525959753527
 30
0.0
 11
171.698414535793
 21
18.525957753527
 31
0.0
  0
LINE
  5
2A3E
330
2A32
100
AcDbEntity
  8
図枠細線
  6
CONTINUOUS
 62
   252
100
AcDbLine
 10
305.098414535793
 20
23.525959753527
 30
0.0
 11
405.098414535793
 21
23.525959753527
 31
0.0
  0
TEXT
  5
2A3F
330
2A32
100
AcDbEntity
  8
図枠ロゴマーク
  6
CONTINUOUS
 62
   253
100
AcDbText
 10
206.102509212755
 20
13.294257570546
 30
0.0
 40
7.0
  1
東和制電工業株式会社
 50
0.016555220185
 41
1.186384129432
  7
EXCADSTD
 72
     5
 11
303.544188309143
 21
13.322412672217
 31
0.0
100
AcDbText
  0
MTEXT
  5
2A40
330
2A32
100
AcDbEntity
  8
図枠細線
100
AcDbMText
 10
6.356764112375
 20
41.976594175478
 30
0.0
 40
2.5
 41
49.938282706292
 71
     1
 72
     5
  1
{\Fmonotxt.shx,bigfont.shx|c128;図暦　CHANGE　NOTICE}
  0
MTEXT
  5
2A41
330
2A32
100
AcDbEntity
  8
図枠細線
 48
10.0
100
AcDbMText
 10
306.544114926828
 20
41.701835800934
 30
0.0
 40
2.5
 41
28.002809618823
 71
     1
 72
     5
  1
{\Fmonotxt.shx,bigfont.shx|c128;名称　TITLE}
  0
MTEXT
  5
2A42
330
2A32
100
AcDbEntity
  8
図枠細線
 48
10.0
100
AcDbMText
 10
307.329617114284
 20
21.606206797226
 30
0.0
 40
2.5
 41
24.385612216707
 71
     1
 72
     5
  1
{\Fmonotxt.shx,bigfont.shx|c128;図面番号\PDRG.　No.}
  0
MTEXT
  5
2A43
330
2A32
100
AcDbEntity
  8
図枠細線
 48
10.0
100
AcDbMText
 10
173.726349404609
 20
21.73680662198
 30
0.0
 40
2.5
 41
25.735090160813
 71
     1
 72
     5
  1
{\Fmonotxt.shx,bigfont.shx|c128;日付 DATE}
  0
MTEXT
  5
2A44
330
2A32
100
AcDbEntity
  8
図枠細線
 48
10.0
100
AcDbMText
 10
173.48708833982
 20
41.621592044998
 30
0.0
 40
2.5
 41
24.983741184205
 71
     1
 72
     5
  1
{\Fmonotxt.shx,bigfont.shx|c128;製図　DRAWN}
  0
MTEXT
  5
2A45
330
2A32
100
AcDbEntity
  8
図枠細線
 48
10.0
100
AcDbMText
 10
139.28009927741
 20
21.866713069868
 30
0.0
 40
2.5
 41
22.629632913243
 71
     1
 72
     5
  1
{\Fmonotxt.shx,bigfont.shx|c128;尺度　SCALE}
  0
MTEXT
  5
2A46
330
2A32
100
AcDbEntity
  8
図枠細線
 48
10.0
100
AcDbMText
 10
139.910091179835
 20
41.311840415554
 30
0.0
 40
2.5
 41
28.998753428368
 71
     1
 72
     5
  1
{\Fmonotxt.shx,bigfont.shx|c128;検図  CHECKED}
  0
MTEXT
  5
2A47
330
2A32
100
AcDbEntity
  8
図枠細線
 48
10.0
100
AcDbMText
 10
114.253294667728
 20
21.916124850174
 30
0.0
 40
3.0
 41
19.692400475383
 71
     1
 72
     5
  1
{\Fmonotxt.shx,bigfont.shx|c128;第三角法}
  0
MTEXT
  5
2A48
330
2A32
100
AcDbEntity
  8
図枠細線
 48
10.0
100
AcDbMText
 10
108.986959929915
 20
15.282880185837
 30
0.0
 40
2.5
 41
27.954882823547
 71
     1
 72
     5
  1
{\Fmonotxt.shx,bigfont.shx|c128;THIRD ANGLE\PPROJECTION}
  0
MTEXT
  5
2A49
330
2A32
100
AcDbEntity
  8
図枠細線
 48
10.0
100
AcDbMText
 10
106.319432640184
 20
41.511437145487
 30
0.0
 40
2.5
 41
28.233595265074
 71
     1
 72
     5
  1
{\Fmonotxt.shx,bigfont.shx|c128;承認 APPROVED}
  0
LINE
  5
2A4A
330
2A32
100
AcDbEntity
  8
図枠太線
  6
CONTINUOUS
 62
   251
100
AcDbLine
 10
5.098414535793
 20
3.525959753527
 30
0.0
 11
405.098414535793
 21
3.525959753527
 31
0.0
  0
LINE
  5
2A4B
330
2A32
100
AcDbEntity
  8
図枠太線
 48
10.0
100
AcDbLine
 10
5.098414535793
 20
3.525959753527
 30
0.0
 11
5.098414535793
 21
43.525959753527
 31
0.0
  0
LINE
  5
2A4C
330
2A32
100
AcDbEntity
  8
図枠太線
  6
CONTINUOUS
 62
   251
100
AcDbLine
 10
105.098414535793
 20
3.525959753527
 30
0.0
 11
105.098414535793
 21
43.525959753527
 31
0.0
  0
LINE
  5
2A4D
330
2A32
100
AcDbEntity
  8
図枠細線
  6
CONTINUOUS
 62
   252
100
AcDbLine
 10
138.398414535793
 20
3.525959753527
 30
0.0
 11
138.398414535793
 21
18.525957753527
 31
0.0
  0
LINE
  5
2A4E
330
2A32
100
AcDbEntity
  8
図枠細線
  6
CONTINUOUS
 62
   252
100
AcDbLine
 10
171.698414535793
 20
3.525959753527
 30
0.0
 11
171.698414535793
 21
18.525957753527
 31
0.0
  0
LINE
  5
2A4F
330
2A32
100
AcDbEntity
  8
図枠太線
  6
CONTINUOUS
 62
   251
100
AcDbLine
 10
205.098414535793
 20
3.525959753527
 30
0.0
 11
205.098414535793
 21
43.525959753527
 31
0.0
  0
LINE
  5
2A50
330
2A32
100
AcDbEntity
  8
図枠太線
 48
10.0
100
AcDbLine
 10
405.098414535793
 20
43.525959753527
 30
0.0
 11
405.098414535793
 21
3.525959753527
 31
0.0
  0
TEXT
  5
2A51
330
2A32
100
AcDbEntity
  8
図枠細線
  6
CONTINUOUS
 62
   252
100
AcDbText
 10
208.519754474572
 20
6.482358407285
 30
0.0
 40
3.5
  1
ＴＯＷＡ　ＳＥＩＤＥＮ　ＩＮＤＵＳＴＲＩＡＬ　ＣＯ．，ＬＴＤ．
 41
0.746656297509
  7
EXCADSTD
 72
     5
 11
303.295327171727
 21
6.482358407285
 31
0.0
100
AcDbText
  0
LINE
  5
2A52
330
2A32
100
AcDbEntity
  8
図枠太線
  6
CONTINUOUS
 62
   251
100
AcDbLine
 10
305.098414535793
 20
3.525959753527
 30
0.0
 11
305.098414535793
 21
43.525959753527
 31
0.0
  0
ENDBLK
  5
2A53
330
2A32
100
AcDbEntity
  8
0
100
AcDbBlockEnd
  0
BLOCK
  5
2AEF
330
2AEB
100
AcDbEntity
  8
0
 48
10.0
100
AcDbBlockBegin
  2
_OPEN30
 70
     0
 10
0.0
 20
0.0
 30
0.0
  3
_OPEN30
  1
_OPEN30
  0
LINE
  5
2AEC
330
2AEB
100
AcDbEntity
  8
0
  6
BYBLOCK
 62
     0
100
AcDbLine
 10
-1.0
 20
0.26794919
 30
0.0
 11
0.0
 21
0.0
 31
0.0
  0
LINE
  5
2AED
330
2AEB
100
AcDbEntity
  8
0
  6
BYBLOCK
 62
     0
100
AcDbLine
 10
0.0
 20
0.0
 30
0.0
 11
-1.0
 21
-0.26794919
 31
0.0
  0
LINE
  5
2AEE
330
2AEB
100
AcDbEntity
  8
0
  6
BYBLOCK
 62
     0
100
AcDbLine
 10
0.0
 20
0.0
 30
0.0
 11
-1.0
 21
0.0
 31
0.0
  0
ENDBLK
  5
2AF0
330
2AEB
100
AcDbEntity
  8
0
 48
10.0
100
AcDbBlockEnd
  0
BLOCK
  5
3A79
330
3A78
100
AcDbEntity
  8
0
 48
10.0
100
AcDbBlockBegin
  2
ケース外形図_HL-100
 70
     0
 10
0.0
 20
0.0
 30
0.0
  3
ケース外形図_HL-100
  1
ケース外形図_HL-100
  0
ARC
  5
3A7A
330
3A78
100
AcDbEntity
  8
外形線
100
AcDbCircle
 10
-2925.377906671296
 20
152.118815834594
 30
0.0
 40
7.5
100
AcDbArc
 50
0.0
 51
86.629979268965
  0
LINE
  5
3A7B
330
3A78
100
AcDbEntity
  8
外形線
100
AcDbLine
 10
-3002.377829171295
 20
141.457735857521
 30
0.0
 11
-2990.377829171296
 21
165.457828357521
 31
0.0
  0
LINE
  5
3A7C
330
3A78
100
AcDbEntity
  8
外形線
100
AcDbLine
 10
-2924.937026299913
 20
159.605846253801
 30
0.0
 11
-2966.627829171296
 21
162.060845849639
 31
0.0
  0
LINE
  5
3A7D
330
3A78
100
AcDbEntity
  8
外形線
100
AcDbLine
 10
-2990.377829171296
 20
165.457828357521
 30
0.0
 11
-2990.377829171296
 21
62.457798357521
 31
0.0
  0
LINE
  5
3A7E
330
3A78
100
AcDbEntity
  8
外形線
100
AcDbLine
 10
-2983.377861671295
 20
167.457798357521
 30
0.0
 11
-2983.377861671295
 21
60.457828357521
 31
0.0
  0
LINE
  5
3A7F
330
3A78
100
AcDbEntity
  8
外形線
100
AcDbLine
 10
-2975.377829171296
 20
60.457828357521
 30
0.0
 11
-2975.377829171296
 21
167.457798357521
 31
0.0
  0
LINE
  5
3A80
330
3A78
100
AcDbEntity
  8
外形線
100
AcDbLine
 10
-2973.627829171295
 20
167.457798357521
 30
0.0
 11
-2973.627829171295
 21
60.457828357521
 31
0.0
  0
LINE
  5
3A81
330
3A78
100
AcDbEntity
  8
外形線
100
AcDbLine
 10
-2966.627829171296
 20
60.457828357521
 30
0.0
 11
-2966.627829171296
 21
167.457798357521
 31
0.0
  0
LINE
  5
3A82
330
3A78
100
AcDbEntity
  8
外形線
100
AcDbLine
 10
-3027.377829171295
 20
40.957783357521
 30
0.0
 11
-3027.377829171295
 21
195.957783357521
 31
0.0
  0
LINE
  5
3A83
330
3A78
100
AcDbEntity
  8
外形線
100
AcDbLine
 10
-3037.377829171295
 20
40.957860857521
 30
0.0
 11
-3037.377829171295
 21
195.957860857521
 31
0.0
  0
LINE
  5
3A84
330
3A78
100
AcDbEntity
  8
外形線
100
AcDbLine
 10
-2983.377861671295
 20
60.457828357521
 30
0.0
 11
-2966.627829171296
 21
60.457828357521
 31
0.0
  0
LINE
  5
3A85
330
3A78
100
AcDbEntity
  8
外形線
100
AcDbLine
 10
-3002.377829171295
 20
95.457828357521
 30
0.0
 11
-2990.377829171296
 21
62.457798357521
 31
0.0
  0
LINE
  5
3A86
330
3A78
100
AcDbEntity
  8
外形線
100
AcDbLine
 10
-3037.377829171295
 20
40.957783357521
 30
0.0
 11
-3027.377829171295
 21
40.957783357521
 31
0.0
  0
LINE
  5
3A87
330
3A78
100
AcDbEntity
  8
中心線
 48
10.0
100
AcDbLine
 10
-3044.864706671296
 20
53.457783357521
 30
0.0
 11
-3019.114164171296
 21
53.457783357521
 31
0.0
  0
LINE
  5
3A88
330
3A78
100
AcDbEntity
  8
外形線
100
AcDbLine
 10
-2990.377829171296
 20
62.457798357521
 30
0.0
 11
-2983.377861671295
 21
61.457735857521
 31
0.0
  0
LINE
  5
3A89
330
3A78
100
AcDbEntity
  8
外形線
100
AcDbLine
 10
-3002.377829171295
 20
95.457828357521
 30
0.0
 11
-3002.377829171295
 21
141.457735857521
 31
0.0
  0
ARC
  5
3A8A
330
3A78
100
AcDbEntity
  8
細線
100
AcDbCircle
 10
-3053.115528206043
 20
118.457782357522
 30
0.0
 40
9.86227696525272
100
AcDbArc
 50
131.155220883625
 51
228.844779116375
  0
LINE
  5
3A8B
330
3A78
100
AcDbEntity
  8
外形線
100
AcDbLine
 10
-3062.977805171295
 20
130.157856357522
 30
0.0
 11
-3062.977805171295
 21
106.757710357522
 31
0.0
  0
LINE
  5
3A8C
330
3A78
100
AcDbEntity
  8
細線
100
AcDbLine
 10
-3042.804099171295
 20
133.308980357522
 30
0.0
 11
-3042.804099171295
 21
103.606586357521
 31
0.0
  0
LINE
  5
3A8D
330
3A78
100
AcDbEntity
  8
外形線
100
AcDbLine
 10
-3062.977805171295
 20
106.757710357522
 30
0.0
 11
-3059.446677171295
 21
103.457782357522
 31
0.0
  0
LINE
  5
3A8E
330
3A78
100
AcDbEntity
  8
外形線
100
AcDbLine
 10
-3059.605906697185
 20
103.606586357521
 30
0.0
 11
-3037.377829171295
 21
103.606586357521
 31
0.0
  0
LINE
  5
3A8F
330
3A78
100
AcDbEntity
  8
細線
100
AcDbLine
 10
-3042.804099171295
 20
111.032183357522
 30
0.0
 11
-3059.605904653565
 21
111.032183357522
 31
0.0
  0
ARC
  5
3A90
330
3A78
100
AcDbEntity
  8
細線
100
AcDbCircle
 10
-3055.384420729553
 20
104.23489277973
 30
0.0
 40
8.00150521587242
100
AcDbArc
 50
121.842510322088
 51
161.621519846142
  0
ARC
  5
3A91
330
3A78
100
AcDbEntity
  8
外形線
100
AcDbCircle
 10
-3021.377921671296
 20
89.457765857521
 30
0.0
 40
6.0
100
AcDbArc
 50
89.999981276021
 51
180.00001984784
  0
LINE
  5
3A92
330
3A78
100
AcDbEntity
  8
外形線
100
AcDbLine
 10
-3021.377921671296
 20
95.457828357521
 30
0.0
 11
-3002.377829171295
 21
95.457828357521
 31
0.0
  0
LINE
  5
3A93
330
3A78
100
AcDbEntity
  8
外形線
100
AcDbLine
 10
-3059.605904653565
 20
133.308980357522
 30
0.0
 11
-3037.377829171295
 21
133.308980357522
 31
0.0
  0
LINE
  5
3A94
330
3A78
100
AcDbEntity
  8
細線
100
AcDbLine
 10
-3042.804099171295
 20
125.883381357521
 30
0.0
 11
-3059.605904653565
 21
125.883381357521
 31
0.0
  0
ARC
  5
3A95
330
3A78
100
AcDbEntity
  8
細線
100
AcDbCircle
 10
-3055.384420729553
 20
132.680671935313
 30
0.0
 40
8.00150521587242
100
AcDbArc
 50
198.378480153858
 51
238.157489677912
  0
LINE
  5
3A96
330
3A78
100
AcDbEntity
  8
外形線
100
AcDbLine
 10
-3062.977805171295
 20
130.157856357522
 30
0.0
 11
-3059.605904653565
 21
133.308980357522
 31
0.0
  0
ARC
  5
3A97
330
3A78
100
AcDbEntity
  8
外形線
100
AcDbCircle
 10
-3021.377921671296
 20
147.457798357521
 30
0.0
 40
6.0
100
AcDbArc
 50
180.00001984784
 51
270.0
  0
LINE
  5
3A98
330
3A78
100
AcDbEntity
  8
外形線
100
AcDbLine
 10
-3021.377921671296
 20
141.457735857521
 30
0.0
 11
-3002.377829171295
 21
141.457735857521
 31
0.0
  0
LINE
  5
3A99
330
3A78
100
AcDbEntity
  8
外形線
100
AcDbLine
 10
-2917.877906671296
 20
152.118815834594
 30
0.0
 11
-2917.877906671296
 21
75.796810880449
 31
0.0
  0
LINE
  5
3A9A
330
3A78
100
AcDbEntity
  8
外形線
100
AcDbLine
 10
-2925.789370913838
 20
67.122885519941
 30
0.0
 11
-2926.321109507413
 21
51.266759702689
 31
0.0
  0
LINE
  5
3A9B
330
3A78
100
AcDbEntity
  8
外形線
100
AcDbLine
 10
-2954.86089061111
 20
63.980015655949
 30
0.0
 11
-2954.434548835178
 21
51.266759702689
 31
0.0
  0
LINE
  5
3A9C
330
3A78
100
AcDbEntity
  8
中心線
 48
10.0
100
AcDbLine
 10
-2940.377829171296
 20
75.649935857521
 30
0.0
 11
-2940.377829171296
 21
33.510113357521
 31
0.0
  0
ARC
  5
3A9D
330
3A78
100
AcDbEntity
  8
細線
100
AcDbCircle
 10
-2940.377906671296
 20
52.324970857521
 30
0.0
 40
12.7495375
100
AcDbArc
 50
241.926501556963
 51
298.073500690785
  0
LINE
  5
3A9E
330
3A78
100
AcDbEntity
  8
外形線
100
AcDbLine
 10
-2952.377876671295
 20
45.575473357521
 30
0.0
 11
-2928.377936671295
 21
45.575473357521
 31
0.0
  0
LINE
  5
3A9F
330
3A78
100
AcDbEntity
  8
外形線
100
AcDbLine
 10
-2952.685532040298
 20
49.575413357521
 30
0.0
 11
-2928.070126302293
 21
49.575413357521
 31
0.0
  0
LINE
  5
3AA0
330
3A78
100
AcDbEntity
  8
外形線
100
AcDbLine
 10
-2949.377844171295
 20
39.575413357521
 30
0.0
 11
-2931.377891671295
 21
39.575413357521
 31
0.0
  0
ARC
  5
3AA1
330
3A78
100
AcDbEntity
  8
細線
100
AcDbCircle
 10
-2950.887549171296
 20
46.344820857521
 30
0.0
 40
6.935630000000001
100
AcDbArc
 50
282.571898360404
 51
310.557678088908
  0
LINE
  5
3AA2
330
3A78
100
AcDbEntity
  8
細線
100
AcDbLine
 10
-2946.377891671295
 20
45.575473357521
 30
0.0
 11
-2946.377891671295
 21
41.075428357521
 31
0.0
  0
LINE
  5
3AA3
330
3A78
100
AcDbEntity
  8
外形線
100
AcDbLine
 10
-2950.627921671295
 20
45.575473357521
 30
0.0
 11
-2950.627921671295
 21
49.575413357521
 31
0.0
  0
LINE
  5
3AA4
330
3A78
100
AcDbEntity
  8
細線
100
AcDbLine
 10
-2948.127921671295
 20
49.575413357521
 30
0.0
 11
-2948.127921671295
 21
45.575473357521
 31
0.0
  0
ARC
  5
3AA5
330
3A78
100
AcDbEntity
  8
外形線
100
AcDbCircle
 10
-2952.685532040298
 20
51.325413357521
 30
0.0
 40
1.75
100
AcDbArc
 50
181.920706503578
 51
270.0
  0
LINE
  5
3AA6
330
3A78
100
AcDbEntity
  8
外形線
100
AcDbLine
 10
-2949.377844171295
 20
39.575413357521
 30
0.0
 11
-2952.377876671295
 21
41.075428357521
 31
0.0
  0
LINE
  5
3AA7
330
3A78
100
AcDbEntity
  8
外形線
100
AcDbLine
 10
-2952.377876671295
 20
45.575473357521
 30
0.0
 11
-2952.377876671295
 21
41.075428357521
 31
0.0
  0
ARC
  5
3AA8
330
3A78
100
AcDbEntity
  8
細線
100
AcDbCircle
 10
-2929.868261671295
 20
46.344820857521
 30
0.0
 40
6.935630000000001
100
AcDbArc
 50
229.442381454627
 51
257.428103887329
  0
LINE
  5
3AA9
330
3A78
100
AcDbEntity
  8
細線
100
AcDbLine
 10
-2934.377921671295
 20
45.575473357521
 30
0.0
 11
-2934.377921671295
 21
41.075428357521
 31
0.0
  0
LINE
  5
3AAA
330
3A78
100
AcDbEntity
  8
外形線
100
AcDbLine
 10
-2930.127891671295
 20
45.575473357521
 30
0.0
 11
-2930.127891671295
 21
49.575413357521
 31
0.0
  0
LINE
  5
3AAB
330
3A78
100
AcDbEntity
  8
細線
100
AcDbLine
 10
-2932.627891671295
 20
49.575413357521
 30
0.0
 11
-2932.627891671295
 21
45.575473357521
 31
0.0
  0
ARC
  5
3AAC
330
3A78
100
AcDbEntity
  8
外形線
100
AcDbCircle
 10
-2928.070126302293
 20
51.325413357521
 30
0.0
 40
1.75
100
AcDbArc
 50
270.0
 51
358.079293496422
  0
LINE
  5
3AAD
330
3A78
100
AcDbEntity
  8
外形線
100
AcDbLine
 10
-2931.377966671296
 20
39.575413357521
 30
0.0
 11
-2928.377936671295
 21
41.075428357521
 31
0.0
  0
LINE
  5
3AAE
330
3A78
100
AcDbEntity
  8
外形線
100
AcDbLine
 10
-2928.377936671295
 20
45.575473357521
 30
0.0
 11
-2928.377936671295
 21
41.075428357521
 31
0.0
  0
ARC
  5
3AAF
330
3A78
100
AcDbEntity
  8
外形線
100
AcDbCircle
 10
-2925.377906671296
 20
75.796810880449
 30
0.0
 40
7.5
100
AcDbArc
 50
273.370020731035
 51
0.0
  0
LINE
  5
3AB0
330
3A78
100
AcDbEntity
  8
外形線
100
AcDbLine
 10
-2924.937026299913
 20
68.309780461244
 30
0.0
 11
-2966.627829171296
 21
65.854780865404
 31
0.0
  0
ARC
  5
3AB1
330
3A78
100
AcDbEntity
  8
外形線
100
AcDbCircle
 10
-2957.359486032368
 20
63.896224720476
 30
0.0
 40
2.5
100
AcDbArc
 50
1.920706503578
 51
93.370020731035
  0
LINE
  5
3AB2
330
3A78
100
AcDbEntity
  8
外形線
100
AcDbLine
 10
-2924.598459495897
 20
67.694343137641
 30
0.0
 11
-2924.603574782856
 21
67.694122607611
 31
0.0
  0
ARC
  5
3AB3
330
3A78
100
AcDbEntity
  8
外形線
100
AcDbCircle
 10
-2924.540073203208
 20
67.080990052204
 30
0.0
 40
1.25
100
AcDbArc
 50
93.370020731035
 51
178.079293496422
  0
LINE
  5
3AB4
330
3A78
100
AcDbEntity
  8
外形線
100
AcDbLine
 10
-2915.377981671295
 20
138.457783357521
 30
0.0
 11
-2915.377981671295
 21
98.457783357521
 31
0.0
  0
ARC
  5
3AB5
330
3A78
100
AcDbEntity
  8
外形線
100
AcDbCircle
 10
-2915.712531671295
 20
96.243655857521
 30
0.0
 40
2.2392525
100
AcDbArc
 50
81.407104039339
 51
165.246528510565
  0
ARC
  5
3AB6
330
3A78
100
AcDbEntity
  8
外形線
100
AcDbCircle
 10
-2915.712531671295
 20
140.671908357521
 30
0.0
 40
2.2392525
100
AcDbArc
 50
194.753453889343
 51
278.592935656363
  0
LINE
  5
3AB7
330
3A78
100
AcDbEntity
  8
外形線
100
AcDbLine
 10
-2966.627829171296
 20
167.457798357521
 30
0.0
 11
-2983.377861671295
 21
167.457798357521
 31
0.0
  0
LINE
  5
3AB8
330
3A78
100
AcDbEntity
  8
中心線
 48
10.0
100
AcDbLine
 10
-3044.864706671296
 20
183.457783357521
 30
0.0
 11
-3019.114164171296
 21
183.457783357521
 31
0.0
  0
LINE
  5
3AB9
330
3A78
100
AcDbEntity
  8
外形線
100
AcDbLine
 10
-2990.377829171296
 20
165.457828357521
 30
0.0
 11
-2983.377861671295
 21
166.457735857521
 31
0.0
  0
LINE
  5
3ABA
330
3A78
100
AcDbEntity
  8
外形線
100
AcDbLine
 10
-3037.377829171295
 20
195.957783357521
 30
0.0
 11
-3027.377829171295
 21
195.957783357521
 31
0.0
  0
ENDBLK
  5
3ABB
330
3A78
100
AcDbEntity
  8
0
 48
10.0
100
AcDbBlockEnd
  0
BLOCK
  5
3F31
330
3F30
100
AcDbEntity
  8
0
 48
10.0
100
AcDbBlockBegin
  2
ケース外形図_HL101
 70
     0
 10
0.0
 20
0.0
 30
0.0
  3
ケース外形図_HL101
  1
ケース外形図_HL101
  0
LINE
  5
3F32
330
3F30
100
AcDbEntity
  8
外形線
100
AcDbLine
 10
-2746.476279393282
 20
140.090942491455
 30
0.0
 11
-2734.476279393282
 21
164.091034991455
 31
0.0
  0
LINE
  5
3F33
330
3F30
100
AcDbEntity
  8
外形線
100
AcDbLine
 10
-2669.035476521899
 20
158.239052887735
 30
0.0
 11
-2710.726279393282
 21
160.694052483573
 31
0.0
  0
LINE
  5
3F34
330
3F30
100
AcDbEntity
  8
外形線
100
AcDbLine
 10
-2710.726279393282
 20
59.091034991455
 30
0.0
 11
-2710.726279393282
 21
166.091004991455
 31
0.0
  0
LINE
  5
3F35
330
3F30
100
AcDbEntity
  8
外形線
100
AcDbLine
 10
-2717.726279393282
 20
166.091004991455
 30
0.0
 11
-2717.726279393282
 21
59.091034991455
 31
0.0
  0
LINE
  5
3F36
330
3F30
100
AcDbEntity
  8
外形線
100
AcDbLine
 10
-2719.476279393282
 20
59.091034991455
 30
0.0
 11
-2719.476279393282
 21
166.091004991455
 31
0.0
  0
LINE
  5
3F37
330
3F30
100
AcDbEntity
  8
外形線
100
AcDbLine
 10
-2727.476311893282
 20
166.091004991455
 30
0.0
 11
-2727.476311893282
 21
59.091034991455
 31
0.0
  0
LINE
  5
3F38
330
3F30
100
AcDbEntity
  8
外形線
100
AcDbLine
 10
-2734.476279393282
 20
164.091034991455
 30
0.0
 11
-2734.476279393282
 21
61.091004991455
 31
0.0
  0
LINE
  5
3F39
330
3F30
100
AcDbEntity
  8
外形線
100
AcDbLine
 10
-2781.476279393282
 20
194.590989991455
 30
0.0
 11
-2781.476279393282
 21
39.590989991455
 31
0.0
  0
LINE
  5
3F3A
330
3F30
100
AcDbEntity
  8
外形線
100
AcDbLine
 10
-2771.476279393282
 20
39.590989991455
 30
0.0
 11
-2771.476279393282
 21
194.590989991455
 31
0.0
  0
LINE
  5
3F3B
330
3F30
100
AcDbEntity
  8
外形線
100
AcDbLine
 10
-2746.476279393282
 20
94.091034991455
 30
0.0
 11
-2734.476279393282
 21
61.091004991455
 31
0.0
  0
LINE
  5
3F3C
330
3F30
100
AcDbEntity
  8
外形線
100
AcDbLine
 10
-2781.476279393282
 20
39.590989991455
 30
0.0
 11
-2771.476279393282
 21
39.590989991455
 31
0.0
  0
LINE
  5
3F3D
330
3F30
100
AcDbEntity
  8
中心線
 48
10.0
100
AcDbLine
 10
-2788.963156893282
 20
52.090989991455
 30
0.0
 11
-2763.212614393282
 21
52.090989991455
 31
0.0
  0
LINE
  5
3F3E
330
3F30
100
AcDbEntity
  8
外形線
100
AcDbLine
 10
-2746.476279393282
 20
94.091034991455
 30
0.0
 11
-2746.476279393282
 21
140.090942491455
 31
0.0
  0
ARC
  5
3F3F
330
3F30
100
AcDbEntity
  8
外形線
100
AcDbCircle
 10
-2765.476371893282
 20
88.090972491455
 30
0.0
 40
6.0
100
AcDbArc
 50
89.999981276021
 51
180.000019847843
  0
LINE
  5
3F40
330
3F30
100
AcDbEntity
  8
外形線
100
AcDbLine
 10
-2765.476371893282
 20
94.091034991455
 30
0.0
 11
-2746.476279393282
 21
94.091034991455
 31
0.0
  0
ARC
  5
3F41
330
3F30
100
AcDbEntity
  8
外形線
100
AcDbCircle
 10
-2765.476371893282
 20
146.091004991455
 30
0.0
 40
6.0
100
AcDbArc
 50
180.000019847842
 51
270.0
  0
LINE
  5
3F42
330
3F30
100
AcDbEntity
  8
外形線
100
AcDbLine
 10
-2765.476371893282
 20
140.090942491455
 30
0.0
 11
-2746.476279393282
 21
140.090942491455
 31
0.0
  0
LINE
  5
3F43
330
3F30
100
AcDbEntity
  8
外形線
100
AcDbLine
 10
-2661.976356893282
 20
150.752022468528
 30
0.0
 11
-2661.976356893282
 21
74.430017514385
 31
0.0
  0
LINE
  5
3F44
330
3F30
100
AcDbEntity
  8
外形線
100
AcDbLine
 10
-2698.959340833097
 20
62.613222289882
 30
0.0
 11
-2698.532999057164
 21
49.899966336623
 31
0.0
  0
LINE
  5
3F45
330
3F30
100
AcDbEntity
  8
外形線
100
AcDbLine
 10
-2669.887821135825
 20
65.756092153875
 30
0.0
 11
-2670.419559729399
 21
49.899966336623
 31
0.0
  0
LINE
  5
3F46
330
3F30
100
AcDbEntity
  8
中心線
 48
10.0
100
AcDbLine
 10
-2684.476279393282
 20
28.023838696997
 30
0.0
 11
-2684.476279393282
 21
76.214502130929
 31
0.0
  0
ARC
  5
3F47
330
3F30
100
AcDbEntity
  8
細線
100
AcDbCircle
 10
-2684.476356893282
 20
50.958177491455
 30
0.0
 40
12.7495375
100
AcDbArc
 50
241.926501556961
 51
298.073500690787
  0
LINE
  5
3F48
330
3F30
100
AcDbEntity
  8
外形線
100
AcDbLine
 10
-2696.783982262284
 20
48.208619991455
 30
0.0
 11
-2672.16857652428
 21
48.208619991455
 31
0.0
  0
LINE
  5
3F49
330
3F30
100
AcDbEntity
  8
外形線
100
AcDbLine
 10
-2693.476294393282
 20
38.208619991455
 30
0.0
 11
-2675.476341893282
 21
38.208619991455
 31
0.0
  0
LINE
  5
3F4A
330
3F30
100
AcDbEntity
  8
外形線
100
AcDbLine
 10
-2696.476326893282
 20
44.208679991455
 30
0.0
 11
-2672.476386893281
 21
44.208679991455
 31
0.0
  0
ARC
  5
3F4B
330
3F30
100
AcDbEntity
  8
細線
100
AcDbCircle
 10
-2694.985999393282
 20
44.978027491455
 30
0.0
 40
6.935630000000001
100
AcDbArc
 50
282.571898360404
 51
310.557678088908
  0
LINE
  5
3F4C
330
3F30
100
AcDbEntity
  8
細線
100
AcDbLine
 10
-2690.476341893282
 20
44.208679991455
 30
0.0
 11
-2690.476341893282
 21
39.708634991455
 31
0.0
  0
ARC
  5
3F4D
330
3F30
100
AcDbEntity
  8
外形線
100
AcDbCircle
 10
-2696.783982262284
 20
49.958619991455
 30
0.0
 40
1.75
100
AcDbArc
 50
181.920706503579
 51
270.0
  0
LINE
  5
3F4E
330
3F30
100
AcDbEntity
  8
外形線
100
AcDbLine
 10
-2693.476294393282
 20
38.208619991455
 30
0.0
 11
-2696.476326893282
 21
39.708634991455
 31
0.0
  0
LINE
  5
3F4F
330
3F30
100
AcDbEntity
  8
外形線
100
AcDbLine
 10
-2696.476326893282
 20
44.208679991455
 30
0.0
 11
-2696.476326893282
 21
39.708634991455
 31
0.0
  0
LINE
  5
3F50
330
3F30
100
AcDbEntity
  8
外形線
100
AcDbLine
 10
-2694.726371893282
 20
44.208679991455
 30
0.0
 11
-2694.726371893282
 21
48.208619991455
 31
0.0
  0
LINE
  5
3F51
330
3F30
100
AcDbEntity
  8
細線
100
AcDbLine
 10
-2692.226371893282
 20
48.208619991455
 30
0.0
 11
-2692.226371893282
 21
44.208679991455
 31
0.0
  0
ARC
  5
3F52
330
3F30
100
AcDbEntity
  8
細線
100
AcDbCircle
 10
-2673.966711893282
 20
44.978027491455
 30
0.0
 40
6.935630000000001
100
AcDbArc
 50
229.442381454625
 51
257.428103887329
  0
LINE
  5
3F53
330
3F30
100
AcDbEntity
  8
細線
100
AcDbLine
 10
-2678.476371893282
 20
44.208679991455
 30
0.0
 11
-2678.476371893282
 21
39.708634991455
 31
0.0
  0
ARC
  5
3F54
330
3F30
100
AcDbEntity
  8
外形線
100
AcDbCircle
 10
-2672.16857652428
 20
49.958619991455
 30
0.0
 40
1.75
100
AcDbArc
 50
270.0
 51
358.079293496421
  0
LINE
  5
3F55
330
3F30
100
AcDbEntity
  8
外形線
100
AcDbLine
 10
-2675.476416893282
 20
38.208619991455
 30
0.0
 11
-2672.476386893281
 21
39.708634991455
 31
0.0
  0
LINE
  5
3F56
330
3F30
100
AcDbEntity
  8
外形線
100
AcDbLine
 10
-2672.476386893281
 20
44.208679991455
 30
0.0
 11
-2672.476386893281
 21
39.708634991455
 31
0.0
  0
LINE
  5
3F57
330
3F30
100
AcDbEntity
  8
外形線
100
AcDbLine
 10
-2674.226341893282
 20
44.208679991455
 30
0.0
 11
-2674.226341893282
 21
48.208619991455
 31
0.0
  0
LINE
  5
3F58
330
3F30
100
AcDbEntity
  8
細線
100
AcDbLine
 10
-2676.726341893282
 20
48.208619991455
 30
0.0
 11
-2676.726341893282
 21
44.208679991455
 31
0.0
  0
LINE
  5
3F59
330
3F30
100
AcDbEntity
  8
外形線
100
AcDbLine
 10
-2669.035476521899
 20
66.942987095177
 30
0.0
 11
-2710.726279393282
 21
64.487987499337
 31
0.0
  0
LINE
  5
3F5A
330
3F30
100
AcDbEntity
  8
外形線
100
AcDbLine
 10
-2727.476311893282
 20
59.091034991455
 30
0.0
 11
-2710.726279393282
 21
59.091034991455
 31
0.0
  0
LINE
  5
3F5B
330
3F30
100
AcDbEntity
  8
外形線
100
AcDbLine
 10
-2734.476279393282
 20
61.091004991455
 30
0.0
 11
-2727.476311893282
 21
60.090942491455
 31
0.0
  0
ARC
  5
3F5C
330
3F30
100
AcDbEntity
  8
外形線
100
AcDbCircle
 10
-2701.457936254356
 20
62.52943135441
 30
0.0
 40
2.5
100
AcDbArc
 50
1.920706503578
 51
93.370020731035
  0
ARC
  5
3F5D
330
3F30
100
AcDbEntity
  8
外形線
100
AcDbCircle
 10
-2669.476356893282
 20
74.430017514385
 30
0.0
 40
7.5
100
AcDbArc
 50
273.370020731035
 51
0.0
  0
ARC
  5
3F5E
330
3F30
100
AcDbEntity
  8
外形線
100
AcDbCircle
 10
-2668.638523425194
 20
65.714196686138
 30
0.0
 40
1.25
100
AcDbArc
 50
93.370020731035
 51
178.079293496416
  0
LINE
  5
3F5F
330
3F30
100
AcDbEntity
  8
外形線
100
AcDbLine
 10
-2668.696909717885
 20
66.327549771575
 30
0.0
 11
-2668.702025004842
 21
66.327329241545
 31
0.0
  0
LINE
  5
3F60
330
3F30
100
AcDbEntity
  8
外形線
100
AcDbLine
 10
-2659.476431893282
 20
137.090989991455
 30
0.0
 11
-2659.476431893282
 21
97.090989991455
 31
0.0
  0
ARC
  5
3F61
330
3F30
100
AcDbEntity
  8
外形線
100
AcDbCircle
 10
-2659.810981893283
 20
94.876862491455
 30
0.0
 40
2.2392525
100
AcDbArc
 50
81.407104039339
 51
165.246528510564
  0
ARC
  5
3F62
330
3F30
100
AcDbEntity
  8
外形線
100
AcDbCircle
 10
-2659.810981893283
 20
139.305114991455
 30
0.0
 40
2.2392525
100
AcDbArc
 50
194.753453889341
 51
278.592935656337
  0
ARC
  5
3F63
330
3F30
100
AcDbEntity
  8
外形線
100
AcDbCircle
 10
-2669.476356893282
 20
150.752022468528
 30
0.0
 40
7.5
100
AcDbArc
 50
0.0
 51
86.629979268965
  0
LINE
  5
3F64
330
3F30
100
AcDbEntity
  8
外形線
100
AcDbLine
 10
-2781.476279393282
 20
194.590989991455
 30
0.0
 11
-2771.476279393282
 21
194.590989991455
 31
0.0
  0
LINE
  5
3F65
330
3F30
100
AcDbEntity
  8
中心線
 48
10.0
100
AcDbLine
 10
-2788.963156893282
 20
182.090989991455
 30
0.0
 11
-2763.212614393282
 21
182.090989991455
 31
0.0
  0
LINE
  5
3F66
330
3F30
100
AcDbEntity
  8
外形線
100
AcDbLine
 10
-2710.726279393282
 20
166.091004991455
 30
0.0
 11
-2727.476311893282
 21
166.091004991455
 31
0.0
  0
LINE
  5
3F67
330
3F30
100
AcDbEntity
  8
外形線
100
AcDbLine
 10
-2734.476279393282
 20
164.091034991455
 30
0.0
 11
-2727.476311893282
 21
165.090942491455
 31
0.0
  0
ENDBLK
  5
3F68
330
3F30
100
AcDbEntity
  8
0
 48
10.0
100
AcDbBlockEnd
  0
BLOCK
  5
3F7F
330
3F7D
100
AcDbEntity
  8
0
 48
10.0
100
AcDbBlockBegin
  2
A$C16143EC0
 70
     0
 10
0.0
 20
0.0
 30
0.0
  3
A$C16143EC0
  1
A$C16143EC0
  0
INSERT
  5
3F7E
330
3F7D
100
AcDbEntity
  8
外形線
100
AcDbBlockReference
  2
ケース外形図_HL101
 10
2788.963159465442
 20
-28.023839097048
 30
0.0
  0
ENDBLK
  5
3F80
330
3F7D
100
AcDbEntity
  8
0
 48
10.0
100
AcDbBlockEnd
  0
BLOCK
  5
4029
330
401F
100
AcDbEntity
  8
0
 48
10.0
100
AcDbBlockBegin
  2
*D5
 70
     1
 10
0.0
 20
0.0
 30
0.0
  3
*D5
  1
*D5
  0
LINE
  5
5A82
330
401F
100
AcDbEntity
  8
寸法線
 62
     0
 48
10.0
100
AcDbLine
 10
661.765674754918
 20
424.861874030263
 30
0.0
 11
661.140674754918
 21
424.861874030263
 31
0.0
  0
LINE
  5
5A83
330
401F
100
AcDbEntity
  8
寸法線
 62
     0
 48
10.0
100
AcDbLine
 10
661.765686498601
 20
390.861874030263
 30
0.0
 11
661.140674754918
 21
390.861874030263
 31
0.0
  0
LINE
  5
5A84
330
401F
100
AcDbEntity
  8
寸法線
 62
     0
 48
10.0
100
AcDbLine
 10
662.390674754918
 20
424.861874030263
 30
0.0
 11
662.390674754918
 21
455.278540696929
 31
0.0
  0
LINE
  5
5A85
330
401F
100
AcDbEntity
  8
寸法線
 62
     0
 48
10.0
100
AcDbLine
 10
662.390674754918
 20
418.861874030263
 30
0.0
 11
662.390674754918
 21
396.861874030263
 31
0.0
  0
INSERT
  5
5A86
330
401F
100
AcDbEntity
  8
寸法線
 62
     0
100
AcDbBlockReference
  2
_OPEN30
 10
662.390674754918
 20
424.861874030263
 30
0.0
 41
6.0
 42
6.0
 43
6.0
 50
90.0
  0
INSERT
  5
5A87
330
401F
100
AcDbEntity
  8
寸法線
 62
     0
100
AcDbBlockReference
  2
_OPEN30
 10
662.390674754918
 20
390.861874030263
 30
0.0
 41
6.0
 42
6.0
 43
6.0
 50
270.0
  0
MTEXT
  5
5A88
330
401F
100
AcDbEntity
  8
寸法線
 62
     0
 48
10.0
100
AcDbMText
 10
656.760466421585
 20
443.236874030263
 30
0.0
 40
10.0
 41
0.0
 71
     5
 72
     1
  1
\A1;φ34
 11
0.0
 21
1.0
 31
0.0
  0
POINT
  5
5A89
330
401F
100
AcDbEntity
  8
DEFPOINTS
 62
     0
100
AcDbPoint
 10
662.390674754918
 20
424.861874030263
 30
0.0
  0
POINT
  5
5A8A
330
401F
100
AcDbEntity
  8
DEFPOINTS
 62
     0
100
AcDbPoint
 10
662.390686498601
 20
390.861874030263
 30
0.0
  0
POINT
  5
5A8B
330
401F
100
AcDbEntity
  8
DEFPOINTS
 62
     0
100
AcDbPoint
 10
662.390674754918
 20
390.861874030263
 30
0.0
  0
ENDBLK
  5
402A
330
401F
100
AcDbEntity
  8
0
 48
10.0
100
AcDbBlockEnd
  0
BLOCK
  5
4201
330
4200
100
AcDbEntity
  8
0
 48
10.0
100
AcDbBlockBegin
  2
パドル_W1
 70
     0
 10
0.0
 20
0.0
 30
0.0
  3
パドル_W1
  1
パドル_W1
  0
LINE
  5
4202
330
4200
100
AcDbEntity
  8
中心線
 48
10.0
100
AcDbLine
 10
124.6832879095
 20
220.674073777677
 30
0.0
 11
131.9189439095
 21
220.674073777677
 31
0.0
  0
LINE
  5
4203
330
4200
100
AcDbEntity
  8
外形線
 48
10.0
100
AcDbLine
 10
58.3011159095
 20
260.651761921811
 30
0.0
 11
58.3011159095
 21
180.651761921811
 31
0.0
  0
LINE
  5
4204
330
4200
100
AcDbEntity
  8
外形線
 48
10.0
100
AcDbLine
 10
58.3011159095
 20
180.651761921811
 30
0.0
 11
123.3011159095
 21
180.651761921811
 31
0.0
  0
LINE
  5
4205
330
4200
100
AcDbEntity
  8
外形線
 48
10.0
100
AcDbLine
 10
138.3011159095
 20
208.651761921811
 30
0.0
 11
138.3011159095
 21
212.376811207105
 31
0.0
  0
LINE
  5
4206
330
4200
100
AcDbEntity
  8
外形線
 48
10.0
100
AcDbLine
 10
123.3011159095
 20
260.651761921811
 30
0.0
 11
58.3011159095
 21
260.651761921811
 31
0.0
  0
LINE
  5
4207
330
4200
100
AcDbEntity
  8
外形線
 48
10.0
100
AcDbLine
 10
138.3011159095
 20
232.651761921811
 30
0.0
 11
123.3011159095
 21
260.651761921811
 31
0.0
  0
LINE
  5
4208
330
4200
100
AcDbEntity
  8
外形線
 48
10.0
100
AcDbLine
 10
138.3011159095
 20
208.651761921811
 30
0.0
 11
123.3011159095
 21
180.651761921811
 31
0.0
  0
LINE
  5
4209
330
4200
100
AcDbEntity
  8
外形線
 48
10.0
100
AcDbLine
 10
153.3011159095
 20
212.376811207105
 30
0.0
 11
153.3011159095
 21
228.941629207105
 31
0.0
  0
LINE
  5
420A
330
4200
100
AcDbEntity
  8
外形線
100
AcDbLine
 10
125.0147379095
 20
212.376811207105
 30
0.0
 11
153.3011159095
 21
212.376811207105
 31
0.0
  0
LINE
  5
420B
330
4200
100
AcDbEntity
  8
細線
100
AcDbLine
 10
153.2891519095
 20
216.518045207105
 30
0.0
 11
124.6692799095
 21
216.518045207105
 31
0.0
  0
LINE
  5
420C
330
4200
100
AcDbEntity
  8
外形線
100
AcDbLine
 10
125.0147379095
 20
228.941629207105
 30
0.0
 11
123.3011159095
 21
227.228007207105
 31
0.0
  0
ARC
  5
420D
330
4200
100
AcDbEntity
  8
細線
100
AcDbCircle
 10
126.4810479095
 20
227.420755207105
 30
0.0
 40
3.18575
100
AcDbArc
 50
183.469852255156
 51
235.339263082109
  0
LINE
  5
420E
330
4200
100
AcDbEntity
  8
細線
100
AcDbLine
 10
153.2891519095
 20
224.800395207105
 30
0.0
 11
124.6692799095
 21
224.800395207105
 31
0.0
  0
ARC
  5
420F
330
4200
100
AcDbEntity
  8
細線
100
AcDbCircle
 10
126.4810479095
 20
213.897685207105
 30
0.0
 40
3.18575
100
AcDbArc
 50
124.660776613574
 51
176.530130144749
  0
LINE
  5
4210
330
4200
100
AcDbEntity
  8
外形線
100
AcDbLine
 10
123.3011159095
 20
227.228007207105
 30
0.0
 11
123.3011159095
 21
214.090433207105
 31
0.0
  0
CIRCLE
  5
4211
330
4200
100
AcDbEntity
  8
外形線
100
AcDbCircle
 10
128.3011159095
 20
220.674073777677
 30
0.0
 40
2.28479
  0
ARC
  5
4212
330
4200
100
AcDbEntity
  8
細線
100
AcDbCircle
 10
130.2525019095
 20
220.659219207105
 30
0.0
 40
6.951389999999999
100
AcDbArc
 50
143.43540034864
 51
216.564582051267
  0
LINE
  5
4213
330
4200
100
AcDbEntity
  8
中心線
 48
10.0
100
AcDbLine
 10
128.3011159095
 20
224.291901777677
 30
0.0
 11
128.3011159095
 21
217.056245777676
 31
0.0
  0
LINE
  5
4214
330
4200
100
AcDbEntity
  8
外形線
100
AcDbLine
 10
125.0147379095
 20
212.376811207105
 30
0.0
 11
123.3011159095
 21
214.090433207105
 31
0.0
  0
LINE
  5
4215
330
4200
100
AcDbEntity
  8
外形線
100
AcDbLine
 10
125.0147379095
 20
228.941629207105
 30
0.0
 11
153.3011159095
 21
228.941629207105
 31
0.0
  0
LINE
  5
4216
330
4200
100
AcDbEntity
  8
外形線
 48
10.0
100
AcDbLine
 10
138.3011159095
 20
228.941629207105
 30
0.0
 11
138.3011159095
 21
232.651761921811
 31
0.0
  0
ENDBLK
  5
4217
330
4200
100
AcDbEntity
  8
0
 48
10.0
100
AcDbBlockEnd
  0
BLOCK
  5
4219
330
4218
100
AcDbEntity
  8
0
 48
10.0
100
AcDbBlockBegin
  2
パドル_W1立面図
 70
     0
 10
0.0
 20
0.0
 30
0.0
  3
パドル_W1立面図
  1
パドル_W1立面図
  0
LINE
  5
421A
330
4218
100
AcDbEntity
  8
外形線
 48
10.0
100
AcDbLine
 10
-4.385455455444
 20
189.61846140322
 30
0.0
 11
-7.241459969979
 21
189.61846140322
 31
0.0
  0
LINE
  5
421B
330
4218
100
AcDbEntity
  8
外形線
 48
10.0
100
AcDbLine
 10
-4.385455455444
 20
269.61846140322
 30
0.0
 11
-7.241459969979
 21
269.61846140322
 31
0.0
  0
LINE
  5
421C
330
4218
100
AcDbEntity
  8
外形線
 48
10.0
100
AcDbLine
 10
-4.385455455444
 20
189.61846140322
 30
0.0
 11
-4.385455455444
 21
269.61846140322
 31
0.0
  0
LINE
  5
421D
330
4218
100
AcDbEntity
  8
外形線
 48
10.0
100
AcDbLine
 10
-7.241459969979
 20
269.61846140322
 30
0.0
 11
-7.241459969979
 21
189.61846140322
 31
0.0
  0
LINE
  5
421E
330
4218
100
AcDbEntity
  8
外形線
100
AcDbLine
 10
-4.385468503734
 20
237.376935973808
 30
0.0
 11
1.606659496266
 21
233.917433973808
 31
0.0
  0
ARC
  5
421F
330
4218
100
AcDbEntity
  8
細線
100
AcDbCircle
 10
-5.813446503734
 20
229.633375973808
 30
0.0
 40
8.568
100
AcDbArc
 50
279.594007516002
 51
80.406014579591
  0
LINE
  5
4220
330
4218
100
AcDbEntity
  8
外形線
100
AcDbLine
 10
1.606659496266
 20
233.917433973808
 30
0.0
 11
1.606659496266
 21
225.349439973808
 31
0.0
  0
LINE
  5
4221
330
4218
100
AcDbEntity
  8
外形線
100
AcDbLine
 10
-4.385468503734
 20
221.889815973808
 30
0.0
 11
1.606659496266
 21
225.349439973808
 31
0.0
  0
ARC
  5
4222
330
4218
100
AcDbEntity
  8
細線
100
AcDbCircle
 10
-5.813446503734
 20
229.633375973808
 30
0.0
 40
7.458525999999999
100
AcDbArc
 50
281.037746568172
 51
78.962275527419
  0
LINE
  5
4223
330
4218
100
AcDbEntity
  8
外形線
100
AcDbLine
 10
-7.241454503734
 20
221.889845973808
 30
0.0
 11
-13.233550503734
 21
225.349439973808
 31
0.0
  0
LINE
  5
4224
330
4218
100
AcDbEntity
  8
外形線
100
AcDbLine
 10
-13.233550503734
 20
225.349439973808
 30
0.0
 11
-13.233550503734
 21
233.917433973808
 31
0.0
  0
LINE
  5
4225
330
4218
100
AcDbEntity
  8
外形線
100
AcDbLine
 10
-7.241454503734
 20
237.376905973808
 30
0.0
 11
-13.233550503734
 21
233.917433973808
 31
0.0
  0
ARC
  5
4226
330
4218
100
AcDbEntity
  8
細線
100
AcDbCircle
 10
-5.813446503734
 20
229.633375973808
 30
0.0
 40
7.458525999999999
100
AcDbArc
 50
101.038013199227
 51
258.962026496458
  0
ARC
  5
4227
330
4218
100
AcDbEntity
  8
細線
100
AcDbCircle
 10
-5.813446503734
 20
229.633375973808
 30
0.0
 40
8.568
100
AcDbArc
 50
99.594159555498
 51
260.405880140189
  0
ENDBLK
  5
4228
330
4218
100
AcDbEntity
  8
0
 48
10.0
100
AcDbBlockEnd
  0
BLOCK
  5
42BE
330
42BD
100
AcDbEntity
  8
0
 48
10.0
100
AcDbBlockBegin
  2
ケース外形図_PRL-101
 70
     0
 10
0.0
 20
0.0
 30
0.0
  3
ケース外形図_PRL-101
  1
ケース外形図_PRL-101
  0
LINE
  5
42BF
330
42BD
100
AcDbEntity
  8
細線
100
AcDbLine
 10
-2665.991042960005
 20
861.623968537874
 30
0.0
 11
-2665.991042960005
 21
873.047918537874
 31
0.0
  0
LINE
  5
42C0
330
42BD
100
AcDbEntity
  8
外形線
100
AcDbLine
 10
-2631.433426960005
 20
830.779118537874
 30
0.0
 11
-2631.433426960005
 21
873.267522537874
 31
0.0
  0
LINE
  5
42C1
330
42BD
100
AcDbEntity
  8
細線
100
AcDbLine
 10
-2662.278274960006
 20
879.331120537874
 30
0.0
 11
-2662.278274960006
 21
782.227116537874
 31
0.0
  0
LINE
  5
42C2
330
42BD
100
AcDbEntity
  8
細線
100
AcDbLine
 10
-2690.838210960005
 20
876.475164537874
 30
0.0
 11
-2690.838210960005
 21
787.771428537874
 31
0.0
  0
LINE
  5
42C3
330
42BD
100
AcDbEntity
  8
外形線
100
AcDbLine
 10
-2681.699050960005
 20
779.779118537874
 30
0.0
 11
-2681.699050960005
 21
881.779118537874
 31
0.0
  0
LINE
  5
42C4
330
42BD
100
AcDbEntity
  8
外形線
100
AcDbLine
 10
-2683.698196960006
 20
881.779118537874
 30
0.0
 11
-2683.698196960006
 21
779.779118537874
 31
0.0
  0
LINE
  5
42C5
330
42BD
100
AcDbEntity
  8
細線
100
AcDbLine
 10
-2687.982254960006
 20
881.779118537874
 30
0.0
 11
-2687.982254960006
 21
779.779118537874
 31
0.0
  0
LWPOLYLINE
  5
42C6
330
42BD
100
AcDbEntity
  8
外形線
100
AcDbPolyline
 90
       67
 70
     0
 43
0.0
 10
-2727.912532980931
 20
874.395574537874
 10
-2727.953293836579
 20
874.383826783906
 10
-2728.068477575312
 20
874.349444977304
 10
-2728.247435954815
 20
874.293721301034
 10
-2728.479520732777
 20
874.21794793805
 10
-2728.754083666881
 20
874.123417071316
 10
-2729.060476514815
 20
874.011420883788
 10
-2729.388051034263
 20
873.88325155843
 10
-2729.726158982913
 20
873.7402012782
 10
-2730.064152118452
 20
873.583562226056
 10
-2730.391382198563
 20
873.414626584962
 10
-2730.697200980931
 20
873.234686537874
 10
-2731.041719305219
 20
872.992715407982
 10
-2731.339825881913
 20
872.736545218548
 10
-2731.596572968897
 20
872.467567585962
 10
-2731.817012824054
 20
872.187174126604
 10
-2732.006197705261
 20
871.89675645686
 10
-2732.169179870401
 20
871.597706193118
 10
-2732.311011577355
 20
871.29141495176
 10
-2732.436745084005
 20
870.979274349172
 10
-2732.551432648232
 20
870.662676001738
 10
-2732.660126527911
 20
870.343011525844
 10
-2732.767878980932
 20
870.021672537874
 10
-2732.995558529487
 20
869.37320130124
 10
-2733.238969065791
 20
868.724486172106
 10
-2733.497161102815
 20
868.07643116072
 10
-2733.769185153524
 20
867.429940277324
 10
-2734.054091730885
 20
866.785917532164
 10
-2734.350931347865
 20
866.145266935484
 10
-2734.658754517435
 20
865.508892497532
 10
-2734.976611752558
 20
864.87769822855
 10
-2735.303553566203
 20
864.252588138782
 10
-2735.63863047134
 20
863.634466238476
 10
-2735.980892980931
 20
863.024236537874
 10
-2736.239184000456
 20
862.576129792738
 10
-2736.499800442533
 20
862.13135252633
 10
-2736.761624540767
 20
861.688377507542
 10
-2737.023538528765
 20
861.245677505256
 10
-2737.284424640132
 20
860.801725288362
 10
-2737.543165108469
 20
860.354993625746
 10
-2737.798642167385
 20
859.903955286294
 10
-2738.049738050485
 20
859.447083038896
 10
-2738.295334991371
 20
858.982849652434
 10
-2738.534315223654
 20
858.509727895798
 10
-2738.765560980932
 20
858.026190537874
 10
-2738.926994170605
 20
857.672921160886
 10
-2739.088946663412
 20
857.318424143266
 10
-2739.256494321417
 20
856.967619238842
 10
-2739.434713006694
 20
856.625426201446
 10
-2739.628678581305
 20
856.2967647849
 10
-2739.843466907328
 20
855.986554743034
 10
-2740.084153846823
 20
855.699715829676
 10
-2740.355815261862
 20
855.441167798654
 10
-2740.663527014515
 20
855.215830403794
 10
-2741.012364966849
 20
855.028623398926
 10
-2741.407404980931
 20
854.884466537874
 10
-2741.846256471285
 20
854.786974295384
 10
-2742.319481250513
 20
854.73005829347
 10
-2742.811030401751
 20
854.707125389318
 10
-2743.304855008141
 20
854.711582440116
 10
-2743.784906152826
 20
854.736836303046
 10
-2744.235134918943
 20
854.776293835296
 10
-2744.639492389633
 20
854.823361894054
 10
-2744.981929648037
 20
854.871447336504
 10
-2745.246397777295
 20
854.913957019834
 10
-2745.416847860545
 20
854.944297801228
 10
-2745.477230980931
 20
854.955876537874
  0
LINE
  5
42C7
330
42BD
100
AcDbEntity
  8
細線
100
AcDbLine
 10
-2731.710140980931
 20
869.906346537874
 30
0.0
 11
-2731.710140980931
 21
791.651952537874
 31
0.0
  0
LINE
  5
42C8
330
42BD
100
AcDbEntity
  8
外形線
100
AcDbLine
 10
-2761.698196960006
 20
908.279118537874
 30
0.0
 11
-2761.698196960006
 21
753.279118537874
 31
0.0
  0
LINE
  5
42C9
330
42BD
100
AcDbEntity
  8
外形線
100
AcDbLine
 10
-2771.698196960006
 20
753.279118537874
 30
0.0
 11
-2771.698196960006
 21
908.279118537874
 31
0.0
  0
LINE
  5
42CA
330
42BD
100
AcDbEntity
  8
中心線
 48
10.0
100
AcDbLine
 10
-2781.983253975795
 20
765.779118537874
 30
0.0
 11
-2749.379418022688
 21
765.779118537874
 31
0.0
  0
LINE
  5
42CB
330
42BD
100
AcDbEntity
  8
中心線
 48
10.0
100
AcDbLine
 10
-2704.698196960006
 20
804.438298537874
 30
0.0
 11
-2704.698196960006
 21
748.836004537874
 31
0.0
  0
LINE
  5
42CC
330
42BD
100
AcDbEntity
  8
外形線
100
AcDbLine
 10
-2689.051423549413
 20
778.91101237705
 30
0.0
 11
-2690.659505049885
 21
766.825284453168
 31
0.0
  0
LINE
  5
42CD
330
42BD
100
AcDbEntity
  8
外形線
100
AcDbLine
 10
-2720.961012960005
 20
784.312322537874
 30
0.0
 11
-2718.725906960005
 21
766.839604537874
 31
0.0
  0
LINE
  5
42CE
330
42BD
100
AcDbEntity
  8
外形線
100
AcDbLine
 10
-2771.698196960006
 20
753.279118537874
 30
0.0
 11
-2761.698196960006
 21
753.279118537874
 31
0.0
  0
ARC
  5
42CF
330
42BD
100
AcDbEntity
  8
外形線
100
AcDbCircle
 10
-2693.490554960005
 20
767.201970537874
 30
0.0
 40
2.856
100
AcDbArc
 50
270.0
 51
352.421011277475
  0
ARC
  5
42D0
330
42BD
100
AcDbEntity
  8
細線
100
AcDbCircle
 10
-2691.275832960006
 20
773.224066537874
 30
0.0
 40
18.322924
100
AcDbArc
 50
247.068453993571
 51
267.322397459894
  0
LINE
  5
42D1
330
42BD
100
AcDbEntity
  8
外形線
100
AcDbLine
 10
-2717.264602960006
 20
754.921148537874
 30
0.0
 11
-2692.131788960005
 21
754.921148537874
 31
0.0
  0
LINE
  5
42D2
330
42BD
100
AcDbEntity
  8
外形線
100
AcDbLine
 10
-2718.692580960005
 20
760.061956537874
 30
0.0
 11
-2690.703688960005
 21
760.061956537874
 31
0.0
  0
LINE
  5
42D3
330
42BD
100
AcDbEntity
  8
細線
100
AcDbLine
 10
-2697.558180960005
 20
764.345952537874
 30
0.0
 11
-2697.558180960005
 21
760.061956537874
 31
0.0
  0
LINE
  5
42D4
330
42BD
100
AcDbEntity
  8
外形線
100
AcDbLine
 10
-2695.273390960006
 20
760.061956537874
 30
0.0
 11
-2695.273390960006
 21
764.345952537874
 31
0.0
  0
LINE
  5
42D5
330
42BD
100
AcDbEntity
  8
細線
100
AcDbLine
 10
-2698.414992960005
 20
756.349188537874
 30
0.0
 11
-2698.414992960005
 21
760.061956537874
 31
0.0
  0
LINE
  5
42D6
330
42BD
100
AcDbEntity
  8
細線
100
AcDbLine
 10
-2711.838210960005
 20
764.345952537874
 30
0.0
 11
-2711.838210960005
 21
760.061956537874
 31
0.0
  0
LINE
  5
42D7
330
42BD
100
AcDbEntity
  8
外形線
100
AcDbLine
 10
-2714.123000960005
 20
760.061956537874
 30
0.0
 11
-2714.123000960005
 21
764.345952537874
 31
0.0
  0
ARC
  5
42D8
330
42BD
100
AcDbEntity
  8
外形線
100
AcDbCircle
 10
-2715.893020960006
 20
767.201970537874
 30
0.0
 40
2.856
100
AcDbArc
 50
187.289418100615
 51
270.0
  0
ARC
  5
42D9
330
42BD
100
AcDbEntity
  8
細線
100
AcDbCircle
 10
-2718.120558960006
 20
773.224066537874
 30
0.0
 40
18.322924
100
AcDbArc
 50
272.67766208363
 51
292.93154825417
  0
LINE
  5
42DA
330
42BD
100
AcDbEntity
  8
外形線
100
AcDbLine
 10
-2718.692580960005
 20
756.349188537874
 30
0.0
 11
-2717.264602960006
 21
754.921148537874
 31
0.0
  0
LINE
  5
42DB
330
42BD
100
AcDbEntity
  8
細線
100
AcDbLine
 10
-2710.981398960005
 20
756.349188537874
 30
0.0
 11
-2710.981398960005
 21
760.061956537874
 31
0.0
  0
LINE
  5
42DC
330
42BD
100
AcDbEntity
  8
外形線
100
AcDbLine
 10
-2718.692580960005
 20
760.061956537874
 30
0.0
 11
-2718.692580960005
 21
756.349188537874
 31
0.0
  0
LINE
  5
42DD
330
42BD
100
AcDbEntity
  8
外形線
100
AcDbLine
 10
-2715.893020960006
 20
764.345982537874
 30
0.0
 11
-2693.490554960005
 21
764.345982537874
 31
0.0
  0
ARC
  5
42DE
330
42BD
100
AcDbEntity
  8
細線
100
AcDbCircle
 10
-2704.698196960006
 20
769.457830537874
 30
0.0
 40
14.53669
100
AcDbArc
 50
244.390793033801
 51
295.609209213941
  0
LINE
  5
42DF
330
42BD
100
AcDbEntity
  8
外形線
100
AcDbLine
 10
-2690.703688960005
 20
756.349188537874
 30
0.0
 11
-2692.131788960005
 21
754.921148537874
 31
0.0
  0
LINE
  5
42E0
330
42BD
100
AcDbEntity
  8
外形線
100
AcDbLine
 10
-2690.703688960005
 20
760.061956537874
 30
0.0
 11
-2690.703688960005
 21
756.349188537874
 31
0.0
  0
ARC
  5
42E1
330
42BD
100
AcDbEntity
  8
外形線
100
AcDbCircle
 10
-2666.317092960006
 20
857.629704537874
 30
0.0
 40
4.015794000000001
100
AcDbArc
 50
274.656944786914
 51
84.065438721313
  0
ARC
  5
42E2
330
42BD
100
AcDbEntity
  8
外形線
100
AcDbCircle
 10
-2667.278152960005
 20
830.196722537874
 30
0.0
 40
5.033766
100
AcDbArc
 50
6.644133183896
 51
75.184725088441
  0
ARC
  5
42E3
330
42BD
100
AcDbEntity
  8
外形線
100
AcDbCircle
 10
-2667.278152960005
 20
831.361638537874
 30
0.0
 40
5.033766
100
AcDbArc
 50
284.815257311477
 51
353.355849216014
  0
ARC
  5
42E4
330
42BD
100
AcDbEntity
  8
外形線
100
AcDbCircle
 10
-2666.317092960006
 20
803.928656537874
 30
0.0
 40
4.015794000000001
100
AcDbArc
 50
275.934583374273
 51
85.343077308664
  0
LINE
  5
42E5
330
42BD
100
AcDbEntity
  8
外形線
100
AcDbLine
 10
-2662.278274960006
 20
782.227116537874
 30
0.0
 11
-2665.991042960005
 21
779.779118537874
 31
0.0
  0
LINE
  5
42E6
330
42BD
100
AcDbEntity
  8
外形線
100
AcDbLine
 10
-2663.950942960006
 20
788.510320537874
 30
0.0
 11
-2681.699050960005
 21
788.510320537874
 31
0.0
  0
LINE
  5
42E7
330
42BD
100
AcDbEntity
  8
外形線
100
AcDbLine
 10
-2663.950942960006
 20
785.083196537874
 30
0.0
 11
-2681.699050960005
 21
785.083196537874
 31
0.0
  0
LINE
  5
42E8
330
42BD
100
AcDbEntity
  8
細線
100
AcDbLine
 10
-2665.991042960005
 20
826.495184537874
 30
0.0
 11
-2665.991042960005
 21
807.931096537874
 31
0.0
  0
LINE
  5
42E9
330
42BD
100
AcDbEntity
  8
細線
100
AcDbLine
 10
-2743.991024980932
 20
853.627142537874
 30
0.0
 11
-2743.991024980932
 21
807.931096537874
 31
0.0
  0
ARC
  5
42EA
330
42BD
100
AcDbEntity
  8
外形線
100
AcDbCircle
 10
-2723.793898960005
 20
783.949896537874
 30
0.0
 40
2.856
100
AcDbArc
 50
7.289398252773
 51
86.905894590757
  0
LWPOLYLINE
  5
42EB
330
42BD
100
AcDbEntity
  8
外形線
100
AcDbPolyline
 90
       67
 70
     0
 43
0.0
 10
-2727.912532980931
 20
787.162664537874
 10
-2727.953293899852
 20
787.174412216412
 10
-2728.068477803089
 20
787.208793826894
 10
-2728.247436410369
 20
787.264517231616
 10
-2728.479521441415
 20
787.340290292878
 10
-2728.754084615951
 20
787.434820872976
 10
-2729.060477653697
 20
787.546816834212
 10
-2729.388052274381
 20
787.674986038882
 10
-2729.726160197723
 20
787.818036349284
 10
-2730.064153143446
 20
787.974675627718
 10
-2730.391382831275
 20
788.143611736482
 10
-2730.697200980931
 20
788.323552537874
 10
-2731.041726713515
 20
788.565531765468
 10
-2731.339837921853
 20
788.821711229278
 10
-2731.596587295491
 20
789.09069912024
 10
-2731.817027523977
 20
789.371103629292
 10
-2732.006211296854
 20
789.66153294737
 10
-2732.169191303669
 20
789.960595265412
 10
-2732.311020233969
 20
790.266898774354
 10
-2732.436750777299
 20
790.579051665134
 10
-2732.551435623205
 20
790.89566212869
 10
-2732.660127461236
 20
791.215338355958
 10
-2732.767878980932
 20
791.536688537874
 10
-2732.995551300265
 20
792.185153437188
 10
-2733.238958623558
 20
792.833859637758
 10
-2733.497150606985
 20
793.48190367618
 10
-2733.769176906731
 20
794.128382089052
 10
-2734.054087178974
 20
794.77239141297
 10
-2734.350931079894
 20
795.413028184532
 10
-2734.658758265669
 20
796.049388940332
 10
-2734.976618392481
 20
796.680570216972
 10
-2735.30356111651
 20
797.305668551042
 10
-2735.638636093933
 20
797.923780479144
 10
-2735.980892980931
 20
798.534002537874
 10
-2736.239185655735
 20
798.982120060822
 10
-2736.499801955925
 20
799.426909071612
 10
-2736.761624603811
 20
799.869896500038
 10
-2737.0235363217
 20
800.312609275896
 10
-2737.284419831899
 20
800.756574328984
 10
-2737.543157856721
 20
801.203318589094
 10
-2737.798633118471
 20
801.654368986026
 10
-2738.049728339459
 20
802.111252449574
 10
-2738.295326241991
 20
802.575495909534
 10
-2738.534309548381
 20
803.048626295702
 10
-2738.765560980932
 20
803.532170537874
 10
-2738.926993461338
 20
803.885428916062
 10
-2739.088946755864
 20
804.239913758744
 10
-2739.256496270204
 20
804.590705697996
 10
-2739.434717410046
 20
804.932885365896
 10
-2739.628685581078
 20
805.261533394522
 10
-2739.843476188994
 20
805.571730415952
 10
-2740.084164639479
 20
805.858557062262
 10
-2740.355826338227
 20
806.117093965532
 10
-2740.663536690926
 20
806.34242175784
 10
-2741.012371103264
 20
806.52962107126
 10
-2741.407404980931
 20
806.673772537874
 10
-2741.846258080313
 20
806.771263661646
 10
-2742.319483857135
 20
806.828178969956
 10
-2742.811033491082
 20
806.851111538492
 10
-2743.304858161833
 20
806.846654442948
 10
-2743.784909049074
 20
806.821400759012
 10
-2744.235137332481
 20
806.781943562376
 10
-2744.639494191742
 20
806.73487592873
 10
-2744.981930806535
 20
806.686790933768
 10
-2745.246398356543
 20
806.644281653176
 10
-2745.416848021449
 20
806.613941162648
 10
-2745.477230980931
 20
806.602362537874
  0
LINE
  5
42EC
330
42BD
100
AcDbEntity
  8
外形線
100
AcDbLine
 10
-2727.912532980931
 20
787.162664537874
 30
0.0
 11
-2723.639743266303
 21
786.801733142958
 31
0.0
  0
LINE
  5
42ED
330
42BD
100
AcDbEntity
  8
外形線
100
AcDbLine
 10
-2745.477230980931
 20
806.602362537874
 30
0.0
 11
-2760.043024980931
 21
804.603094537874
 31
0.0
  0
ARC
  5
42EE
330
42BD
100
AcDbEntity
  8
外形線
100
AcDbCircle
 10
-2758.924616980931
 20
802.060124537874
 30
0.0
 40
2.778136
100
AcDbArc
 50
113.741117770862
 51
176.718232188895
  0
LINE
  5
42EF
330
42BD
100
AcDbEntity
  8
細線
100
AcDbLine
 10
-2665.991042960005
 20
799.934392537874
 30
0.0
 11
-2665.991042960005
 21
788.510320537874
 31
0.0
  0
ARC
  5
42F0
330
42BD
100
AcDbEntity
  8
細線
100
AcDbCircle
 10
-2704.082716960005
 20
753.578984537874
 30
0.0
 40
36.766532
100
AcDbArc
 50
68.885514212383
 51
115.211785839404
  0
LINE
  5
42F1
330
42BD
100
AcDbEntity
  8
細線
100
AcDbLine
 10
-2665.991042960005
 20
785.083196537874
 30
0.0
 11
-2665.991042960005
 21
779.779118537874
 31
0.0
  0
LINE
  5
42F2
330
42BD
100
AcDbEntity
  8
細線
100
AcDbLine
 10
-2687.982254960006
 20
779.779118537874
 30
0.0
 11
-2690.838210960005
 21
787.877103088648
 31
0.0
  0
ARC
  5
42F3
330
42BD
100
AcDbEntity
  8
外形線
100
AcDbCircle
 10
-2688.060159702001
 20
778.779118537874
 30
0.0
 40
1.0
100
AcDbArc
 50
90.0
 51
172.420956229591
  0
LINE
  5
42F4
330
42BD
100
AcDbEntity
  8
外形線
100
AcDbLine
 10
-2688.060159702001
 20
779.779118537874
 30
0.0
 11
-2665.991042960005
 21
779.779118537874
 31
0.0
  0
LINE
  5
42F5
330
42BD
100
AcDbEntity
  8
外形線
100
AcDbLine
 10
-2681.699050960005
 20
799.934392537874
 30
0.0
 11
-2665.901932960005
 21
799.934392537874
 31
0.0
  0
LINE
  5
42F6
330
42BD
100
AcDbEntity
  8
外形線
100
AcDbLine
 10
-2681.699050960005
 20
807.931096537874
 30
0.0
 11
-2665.991042960005
 21
807.931096537874
 31
0.0
  0
LINE
  5
42F7
330
42BD
100
AcDbEntity
  8
外形線
100
AcDbLine
 10
-2745.477230980931
 20
854.955876537874
 30
0.0
 11
-2760.043024980931
 21
856.955144537874
 31
0.0
  0
ARC
  5
42F8
330
42BD
100
AcDbEntity
  8
外形線
100
AcDbCircle
 10
-2758.924616980931
 20
859.498236537874
 30
0.0
 40
2.778136
100
AcDbArc
 50
183.281807506792
 51
246.258864629059
  0
LINE
  5
42F9
330
42BD
100
AcDbEntity
  8
細線
100
AcDbLine
 10
-2665.991042960005
 20
835.063176537874
 30
0.0
 11
-2665.991042960005
 21
853.627142537874
 31
0.0
  0
LINE
  5
42FA
330
42BD
100
AcDbEntity
  8
外形線
100
AcDbLine
 10
-2681.699050960005
 20
835.063176537874
 30
0.0
 11
-2665.991042960005
 21
835.063176537874
 31
0.0
  0
LINE
  5
42FB
330
42BD
100
AcDbEntity
  8
外形線
100
AcDbLine
 10
-2681.699050960005
 20
826.495184537874
 30
0.0
 11
-2665.991042960005
 21
826.495184537874
 31
0.0
  0
LINE
  5
42FC
330
42BD
100
AcDbEntity
  8
外形線
100
AcDbLine
 10
-2681.699050960005
 20
853.627142537874
 30
0.0
 11
-2665.991042960005
 21
853.627142537874
 31
0.0
  0
LINE
  5
42FD
330
42BD
100
AcDbEntity
  8
外形線
100
AcDbLine
 10
-2681.699050960005
 20
861.623968537874
 30
0.0
 11
-2665.901932960005
 21
861.623968537874
 31
0.0
  0
LINE
  5
42FE
330
42BD
100
AcDbEntity
  8
外形線
100
AcDbLine
 10
-2621.722976960005
 20
807.359930537874
 30
0.0
 11
-2621.722976960005
 21
824.781560537874
 31
0.0
  0
LINE
  5
42FF
330
42BD
100
AcDbEntity
  8
外形線
100
AcDbLine
 10
-2631.433426960005
 20
830.779118537874
 30
0.0
 11
-2631.433426960005
 21
788.290838537874
 31
0.0
  0
ARC
  5
4300
330
42BD
100
AcDbEntity
  8
外形線
100
AcDbCircle
 10
-2636.288650960006
 20
788.290838537874
 30
0.0
 40
4.8552
100
AcDbArc
 50
272.650733067261
 51
359.999982399901
  0
ARC
  5
4301
330
42BD
100
AcDbEntity
  8
外形線
100
AcDbCircle
 10
-2664.004958960005
 20
786.796698537874
 30
0.0
 40
1.714446
100
AcDbArc
 50
271.804703586974
 51
88.195318508605
  0
LINE
  5
4302
330
42BD
100
AcDbEntity
  8
外形線
100
AcDbLine
 10
-2662.278274960006
 20
782.227116537874
 30
0.0
 11
-2636.064040960006
 21
783.440802537874
 31
0.0
  0
ARC
  5
4303
330
42BD
100
AcDbEntity
  8
外形線
100
AcDbCircle
 10
-2623.585158960005
 20
799.511052537874
 30
0.0
 40
1.86215
100
AcDbArc
 50
268.482178628784
 51
83.815801009983
  0
ARC
  5
4304
330
42BD
100
AcDbEntity
  8
外形線
100
AcDbCircle
 10
-2623.722244960006
 20
807.359930537874
 30
0.0
 40
1.9992
100
AcDbArc
 50
270.0
 51
359.999982399901
  0
ARC
  5
4305
330
42BD
100
AcDbEntity
  8
外形線
100
AcDbCircle
 10
-2629.432936960005
 20
803.361608537874
 30
0.0
 40
2.000724
100
AcDbArc
 50
87.757023395436
 51
272.242959004484
  0
LINE
  5
4306
330
42BD
100
AcDbEntity
  8
外形線
100
AcDbLine
 10
-2629.354690960005
 20
801.362370537874
 30
0.0
 11
-2623.384598960006
 21
801.362370537874
 31
0.0
  0
LINE
  5
4307
330
42BD
100
AcDbEntity
  8
外形線
100
AcDbLine
 10
-2631.433426960005
 20
797.649602537874
 30
0.0
 11
-2623.634476960005
 21
797.649602537874
 31
0.0
  0
LINE
  5
4308
330
42BD
100
AcDbEntity
  8
外形線
100
AcDbLine
 10
-2629.354628960005
 20
805.360784537874
 30
0.0
 11
-2623.722244960006
 21
805.360784537874
 31
0.0
  0
LINE
  5
4309
330
42BD
100
AcDbEntity
  8
外形線
100
AcDbLine
 10
-2621.722976960005
 20
854.198308537874
 30
0.0
 11
-2621.722976960005
 21
836.776678537874
 31
0.0
  0
ARC
  5
430A
330
42BD
100
AcDbEntity
  8
外形線
100
AcDbCircle
 10
-2623.722244960006
 20
836.776678537874
 30
0.0
 40
1.9992
100
AcDbArc
 50
270.0
 51
359.999982399908
  0
ARC
  5
430B
330
42BD
100
AcDbEntity
  8
外形線
100
AcDbCircle
 10
-2629.279006960005
 20
832.632024537874
 30
0.0
 40
2.15556
100
AcDbArc
 50
95.512637406103
 51
178.08903371374
  0
LINE
  5
430C
330
42BD
100
AcDbEntity
  8
外形線
100
AcDbLine
 10
-2629.486038960005
 20
834.777532537874
 30
0.0
 11
-2623.722244960006
 21
834.777532537874
 31
0.0
  0
LINE
  5
430D
330
42BD
100
AcDbEntity
  8
外形線
100
AcDbLine
 10
-2629.486038960005
 20
826.780828537874
 30
0.0
 11
-2623.722244960006
 21
826.780828537874
 31
0.0
  0
ARC
  5
430E
330
42BD
100
AcDbEntity
  8
外形線
100
AcDbCircle
 10
-2623.722244960006
 20
824.781560537874
 30
0.0
 40
1.9992
100
AcDbArc
 50
0.0
 51
89.999981276021
  0
ARC
  5
430F
330
42BD
100
AcDbEntity
  8
外形線
100
AcDbCircle
 10
-2629.279006960005
 20
828.926336537874
 30
0.0
 40
2.15556
100
AcDbArc
 50
181.910948686163
 51
264.487402289583
  0
LINE
  5
4310
330
42BD
100
AcDbEntity
  8
外形線
100
AcDbLine
 10
-2631.433426960005
 20
863.908758537874
 30
0.0
 11
-2623.634476960005
 21
863.908758537874
 31
0.0
  0
ARC
  5
4311
330
42BD
100
AcDbEntity
  8
外形線
100
AcDbCircle
 10
-2623.722244960006
 20
854.198308537874
 30
0.0
 40
1.9992
100
AcDbArc
 50
0.0
 51
89.999981276021
  0
ARC
  5
4312
330
42BD
100
AcDbEntity
  8
外形線
100
AcDbCircle
 10
-2629.434218960006
 20
858.196722537874
 30
0.0
 40
2.000726
100
AcDbArc
 50
87.722187561485
 51
272.27785213419
  0
LINE
  5
4313
330
42BD
100
AcDbEntity
  8
外形線
100
AcDbLine
 10
-2629.354690960005
 20
856.197576537874
 30
0.0
 11
-2623.722244960006
 21
856.197576537874
 31
0.0
  0
LINE
  5
4314
330
42BD
100
AcDbEntity
  8
外形線
100
AcDbLine
 10
-2629.354690960005
 20
860.195866537874
 30
0.0
 11
-2623.384598960006
 21
860.195866537874
 31
0.0
  0
ARC
  5
4315
330
42BD
100
AcDbEntity
  8
外形線
100
AcDbCircle
 10
-2623.585158960005
 20
862.047308537874
 30
0.0
 40
1.86215
100
AcDbArc
 50
276.18422108563
 51
91.517843466792
  0
LINE
  5
4316
330
42BD
100
AcDbEntity
  8
中心線
 48
10.0
100
AcDbLine
 10
-2781.852691728484
 20
895.779118537874
 30
0.0
 11
-2749.248855775376
 21
895.779118537874
 31
0.0
  0
LINE
  5
4317
330
42BD
100
AcDbEntity
  8
外形線
100
AcDbLine
 10
-2663.950942960006
 20
873.047918537874
 30
0.0
 11
-2681.699050960005
 21
873.047918537874
 31
0.0
  0
LINE
  5
4318
330
42BD
100
AcDbEntity
  8
外形線
100
AcDbLine
 10
-2663.950942960006
 20
876.475164537874
 30
0.0
 11
-2681.699050960005
 21
876.475164537874
 31
0.0
  0
LINE
  5
4319
330
42BD
100
AcDbEntity
  8
外形線
100
AcDbLine
 10
-2665.991042960005
 20
881.779118537874
 30
0.0
 11
-2662.278274960006
 21
879.331120537874
 31
0.0
  0
LINE
  5
431A
330
42BD
100
AcDbEntity
  8
外形線
100
AcDbLine
 10
-2727.912532980931
 20
874.395574537874
 30
0.0
 11
-2690.838210960005
 21
876.475164537874
 31
0.0
  0
LINE
  5
431B
330
42BD
100
AcDbEntity
  8
外形線
100
AcDbLine
 10
-2771.698196960006
 20
908.279118537874
 30
0.0
 11
-2761.698196960006
 21
908.279118537874
 31
0.0
  0
LINE
  5
431C
330
42BD
100
AcDbEntity
  8
外形線
100
AcDbLine
 10
-2687.982254960006
 20
881.779118537874
 30
0.0
 11
-2665.991042960005
 21
881.779118537874
 31
0.0
  0
LINE
  5
431D
330
42BD
100
AcDbEntity
  8
外形線
100
AcDbLine
 10
-2690.838210960005
 20
876.475164537874
 30
0.0
 11
-2687.982254960006
 21
881.779118537874
 31
0.0
  0
LINE
  5
431E
330
42BD
100
AcDbEntity
  8
細線
100
AcDbLine
 10
-2665.991042960005
 20
876.475164537874
 30
0.0
 11
-2665.991042960005
 21
881.779118537874
 31
0.0
  0
ARC
  5
431F
330
42BD
100
AcDbEntity
  8
外形線
100
AcDbCircle
 10
-2636.288650960006
 20
873.267522537874
 30
0.0
 40
4.8552
100
AcDbArc
 50
0.0
 51
87.349306628423
  0
ARC
  5
4320
330
42BD
100
AcDbEntity
  8
外形線
100
AcDbCircle
 10
-2664.004958960005
 20
874.761540537874
 30
0.0
 40
1.714446
100
AcDbArc
 50
271.804703586974
 51
88.195318508605
  0
LINE
  5
4321
330
42BD
100
AcDbEntity
  8
外形線
100
AcDbLine
 10
-2662.278274960006
 20
879.331120537874
 30
0.0
 11
-2636.064040960006
 21
878.117498537874
 31
0.0
  0
ENDBLK
  5
4322
330
42BD
100
AcDbEntity
  8
0
 48
10.0
100
AcDbBlockEnd
  0
BLOCK
  5
4324
330
4323
100
AcDbEntity
  8
0
 48
10.0
100
AcDbBlockBegin
  2
A$C480F1F2B
 70
     0
 10
0.0
 20
0.0
 30
0.0
  3
A$C480F1F2B
  1
A$C480F1F2B
  0
LINE
  5
4325
330
4323
100
AcDbEntity
  8
外形線
100
AcDbLine
 10
8.500001501512
 20
2.385002184348
 30
0.0
 11
8.500001501512
 21
14.179664684348
 31
0.0
  0
ARC
  5
4326
330
4323
100
AcDbEntity
  8
細線
100
AcDbCircle
 10
1.216144001512
 20
8.282372184348
 30
0.0
 40
7.2838425
100
AcDbArc
 50
326.010120640452
 51
33.98932849733
  0
ARC
  5
4327
330
4323
100
AcDbEntity
  8
細線
100
AcDbCircle
 10
4.911364001511
 20
1.275229684348
 30
0.0
 40
3.7563025
100
AcDbArc
 50
17.184150191555
 51
51.38761061704
  0
LINE
  5
4328
330
4323
100
AcDbEntity
  8
細線
100
AcDbLine
 10
2.000001501511
 20
4.210487184348
 30
0.0
 11
7.255442473881
 21
4.210487184348
 31
0.0
  0
LINE
  5
4329
330
4323
100
AcDbEntity
  8
外形線
100
AcDbLine
 10
2.000001501511
 20
16.564818684348
 30
0.0
 11
2.000001501511
 21
0.000000684348
 31
0.0
  0
LINE
  5
432A
330
4323
100
AcDbEntity
  8
外形線
100
AcDbLine
 10
0.000001501512
 20
16.564818684348
 30
0.0
 11
0.000001501512
 21
0.000000684348
 31
0.0
  0
LINE
  5
432B
330
4323
100
AcDbEntity
  8
外形線
100
AcDbLine
 10
6.114929777464
 20
0.000000684348
 30
0.0
 11
8.499926501511
 21
2.385079684348
 31
0.0
  0
LINE
  5
432C
330
4323
100
AcDbEntity
  8
外形線
100
AcDbLine
 10
0.000001501512
 20
0.000000684348
 30
0.0
 11
6.114929777464
 21
0.000000684348
 31
0.0
  0
ARC
  5
432D
330
4323
100
AcDbEntity
  8
細線
100
AcDbCircle
 10
4.911364001511
 20
15.289437184348
 30
0.0
 40
3.7563025
100
AcDbArc
 50
308.612371782873
 51
342.81588950412
  0
LINE
  5
432E
330
4323
100
AcDbEntity
  8
細線
100
AcDbLine
 10
2.000001501511
 20
12.354369684348
 30
0.0
 11
7.25548242852
 21
12.354369684348
 31
0.0
  0
LINE
  5
432F
330
4323
100
AcDbEntity
  8
外形線
100
AcDbLine
 10
6.11493439904
 20
16.564818684348
 30
0.0
 11
8.499926501511
 21
14.179664684348
 31
0.0
  0
LINE
  5
4330
330
4323
100
AcDbEntity
  8
外形線
100
AcDbLine
 10
0.000001501512
 20
16.564818684348
 30
0.0
 11
6.11493439904
 21
16.564818684348
 31
0.0
  0
ENDBLK
  5
4331
330
4323
100
AcDbEntity
  8
0
 48
10.0
100
AcDbBlockEnd
  0
BLOCK
  5
4482
330
4478
100
AcDbEntity
  8
0
 48
10.0
100
AcDbBlockBegin
  2
*D10
 70
     1
 10
0.0
 20
0.0
 30
0.0
  3
*D10
  1
*D10
  0
LINE
  5
5A79
330
4478
100
AcDbEntity
  8
寸法線
 62
     0
 48
10.0
100
AcDbLine
 10
693.087862159598
 20
293.630014681648
 30
0.0
 11
693.087862159598
 21
271.080505718918
 31
0.0
  0
LINE
  5
5A7A
330
4478
100
AcDbEntity
  8
寸法線
 62
     0
 48
10.0
100
AcDbLine
 10
843.063050159598
 20
306.516623389817
 30
0.0
 11
843.063050159598
 21
271.080505718918
 31
0.0
  0
LINE
  5
5A7B
330
4478
100
AcDbEntity
  8
寸法線
 62
     0
 48
10.0
100
AcDbLine
 10
699.087862159598
 20
272.330505718918
 30
0.0
 11
837.063050159598
 21
272.330505718918
 31
0.0
  0
INSERT
  5
5A7C
330
4478
100
AcDbEntity
  8
寸法線
 62
     0
100
AcDbBlockReference
  2
_OPEN30
 10
693.087862159598
 20
272.330505718918
 30
0.0
 41
6.0
 42
6.0
 43
6.0
 50
180.0
  0
INSERT
  5
5A7D
330
4478
100
AcDbEntity
  8
寸法線
 62
     0
100
AcDbBlockReference
  2
_OPEN30
 10
843.063050159598
 20
272.330505718918
 30
0.0
 41
6.0
 42
6.0
 43
6.0
  0
MTEXT
  5
5A7E
330
4478
100
AcDbEntity
  8
寸法線
 62
     0
 48
10.0
100
AcDbMText
 10
768.075456159598
 20
277.955505718918
 30
0.0
 40
10.0
 41
0.0
 71
     5
 72
     1
  1
\A1;150
  0
POINT
  5
5A7F
330
4478
100
AcDbEntity
  8
DEFPOINTS
 62
     0
100
AcDbPoint
 10
693.087862159598
 20
294.255014681648
 30
0.0
  0
POINT
  5
5A80
330
4478
100
AcDbEntity
  8
DEFPOINTS
 62
     0
100
AcDbPoint
 10
843.063050159598
 20
307.141623389817
 30
0.0
  0
POINT
  5
5A81
330
4478
100
AcDbEntity
  8
DEFPOINTS
 62
     0
100
AcDbPoint
 10
843.063050159598
 20
272.330505718918
 30
0.0
  0
ENDBLK
  5
4483
330
4478
100
AcDbEntity
  8
0
 48
10.0
100
AcDbBlockEnd
  0
BLOCK
  5
4490
330
4484
100
AcDbEntity
  8
0
 48
10.0
100
AcDbBlockBegin
  2
*D11
 70
     1
 10
0.0
 20
0.0
 30
0.0
  3
*D11
  1
*D11
  0
LINE
  5
5A6E
330
4484
100
AcDbEntity
  8
寸法線
 62
     0
 48
10.0
100
AcDbLine
 10
693.087862159598
 20
329.736796530263
 30
0.0
 11
693.087862159598
 21
294.255014681648
 31
0.0
  0
LINE
  5
5A6F
330
4484
100
AcDbEntity
  8
寸法線
 62
     0
 48
10.0
100
AcDbLine
 10
703.087862159598
 20
329.736796530263
 30
0.0
 11
703.087862159598
 21
294.255014681648
 31
0.0
  0
LINE
  5
5A70
330
4484
100
AcDbEntity
  8
寸法線
 62
     0
 48
10.0
100
AcDbLine
 10
693.087862159598
 20
295.505014681648
 30
0.0
 11
703.087862159598
 21
295.505014681648
 31
0.0
  0
LINE
  5
5A71
330
4484
100
AcDbEntity
  8
寸法線
 62
     0
 48
10.0
100
AcDbLine
 10
687.087862159598
 20
295.505014681648
 30
0.0
 11
681.087862159598
 21
295.505014681648
 31
0.0
  0
LINE
  5
5A72
330
4484
100
AcDbEntity
  8
寸法線
 62
     0
 48
10.0
100
AcDbLine
 10
709.087862159598
 20
295.505014681648
 30
0.0
 11
715.087862159598
 21
295.505014681648
 31
0.0
  0
INSERT
  5
5A73
330
4484
100
AcDbEntity
  8
寸法線
 62
     0
100
AcDbBlockReference
  2
_OPEN30
 10
693.087862159598
 20
295.505014681648
 30
0.0
 41
6.0
 42
6.0
 43
6.0
  0
INSERT
  5
5A74
330
4484
100
AcDbEntity
  8
寸法線
 62
     0
100
AcDbBlockReference
  2
_OPEN30
 10
703.087862159598
 20
295.505014681648
 30
0.0
 41
6.0
 42
6.0
 43
6.0
 50
180.0
  0
MTEXT
  5
5A75
330
4484
100
AcDbEntity
  8
寸法線
 62
     0
 48
10.0
100
AcDbMText
 10
698.087862159598
 20
300.130014681648
 30
0.0
 40
8.0
 41
0.0
 71
     5
 72
     1
  1
\A1;10
  0
POINT
  5
5A76
330
4484
100
AcDbEntity
  8
DEFPOINTS
 62
     0
100
AcDbPoint
 10
693.087862159598
 20
330.361796530263
 30
0.0
  0
POINT
  5
5A77
330
4484
100
AcDbEntity
  8
DEFPOINTS
 62
     0
100
AcDbPoint
 10
703.087862159598
 20
330.361796530263
 30
0.0
  0
POINT
  5
5A78
330
4484
100
AcDbEntity
  8
DEFPOINTS
 62
     0
100
AcDbPoint
 10
703.087862159598
 20
295.505014681648
 30
0.0
  0
ENDBLK
  5
4491
330
4484
100
AcDbEntity
  8
0
 48
10.0
100
AcDbBlockEnd
  0
BLOCK
  5
449C
330
4492
100
AcDbEntity
  8
0
 48
10.0
100
AcDbBlockBegin
  2
*D12
 70
     1
 10
0.0
 20
0.0
 30
0.0
  3
*D12
  1
*D12
  0
LINE
  5
5A65
330
4492
100
AcDbEntity
  8
寸法線
 62
     0
 48
10.0
100
AcDbLine
 10
703.087862159598
 20
329.736796530263
 30
0.0
 11
703.087862159598
 21
294.255014681648
 31
0.0
  0
LINE
  5
5A66
330
4492
100
AcDbEntity
  8
寸法線
 62
     0
 48
10.0
100
AcDbLine
 10
760.087862159597
 20
325.293760030263
 30
0.0
 11
760.087862159597
 21
294.255014681648
 31
0.0
  0
LINE
  5
5A67
330
4492
100
AcDbEntity
  8
寸法線
 62
     0
 48
10.0
100
AcDbLine
 10
709.087862159598
 20
295.505014681648
 30
0.0
 11
754.087862159597
 21
295.505014681648
 31
0.0
  0
INSERT
  5
5A68
330
4492
100
AcDbEntity
  8
寸法線
 62
     0
100
AcDbBlockReference
  2
_OPEN30
 10
703.087862159598
 20
295.505014681648
 30
0.0
 41
6.0
 42
6.0
 43
6.0
 50
180.0
  0
INSERT
  5
5A69
330
4492
100
AcDbEntity
  8
寸法線
 62
     0
100
AcDbBlockReference
  2
_OPEN30
 10
760.087862159597
 20
295.505014681648
 30
0.0
 41
6.0
 42
6.0
 43
6.0
  0
MTEXT
  5
5A6A
330
4492
100
AcDbEntity
  8
寸法線
 62
     0
 48
10.0
100
AcDbMText
 10
731.587862159597
 20
301.130014681648
 30
0.0
 40
10.0
 41
0.0
 71
     5
 72
     1
  1
\A1;57
  0
POINT
  5
5A6B
330
4492
100
AcDbEntity
  8
DEFPOINTS
 62
     0
100
AcDbPoint
 10
703.087862159598
 20
330.361796530263
 30
0.0
  0
POINT
  5
5A6C
330
4492
100
AcDbEntity
  8
DEFPOINTS
 62
     0
100
AcDbPoint
 10
760.087862159597
 20
325.918760030263
 30
0.0
  0
POINT
  5
5A6D
330
4492
100
AcDbEntity
  8
DEFPOINTS
 62
     0
100
AcDbPoint
 10
760.087862159597
 20
295.505014681648
 30
0.0
  0
ENDBLK
  5
449D
330
4492
100
AcDbEntity
  8
0
 48
10.0
100
AcDbBlockEnd
  0
BLOCK
  5
44A8
330
449E
100
AcDbEntity
  8
0
 48
10.0
100
AcDbBlockBegin
  2
*D13
 70
     1
 10
0.0
 20
0.0
 30
0.0
  3
*D13
  1
*D13
  0
LINE
  5
5A5C
330
449E
100
AcDbEntity
  8
寸法線
 62
     0
 48
10.0
100
AcDbLine
 10
760.087862159597
 20
325.293760030263
 30
0.0
 11
760.087862159597
 21
294.255014681648
 31
0.0
  0
LINE
  5
5A5D
330
449E
100
AcDbEntity
  8
寸法線
 62
     0
 48
10.0
100
AcDbLine
 10
781.087862159597
 20
356.236874030263
 30
0.0
 11
781.087862159597
 21
294.255014681648
 31
0.0
  0
LINE
  5
5A5E
330
449E
100
AcDbEntity
  8
寸法線
 62
     0
 48
10.0
100
AcDbLine
 10
766.087862159597
 20
295.505014681648
 30
0.0
 11
775.087862159597
 21
295.505014681648
 31
0.0
  0
INSERT
  5
5A5F
330
449E
100
AcDbEntity
  8
寸法線
 62
     0
100
AcDbBlockReference
  2
_OPEN30
 10
760.087862159597
 20
295.505014681648
 30
0.0
 41
6.0
 42
6.0
 43
6.0
 50
180.0
  0
INSERT
  5
5A60
330
449E
100
AcDbEntity
  8
寸法線
 62
     0
100
AcDbBlockReference
  2
_OPEN30
 10
781.087862159597
 20
295.505014681648
 30
0.0
 41
6.0
 42
6.0
 43
6.0
  0
MTEXT
  5
5A61
330
449E
100
AcDbEntity
  8
寸法線
 62
     0
 48
10.0
100
AcDbMText
 10
770.587862159597
 20
301.135223014982
 30
0.0
 40
10.0
 41
0.0
 71
     5
 72
     1
  1
\A1;21
  0
POINT
  5
5A62
330
449E
100
AcDbEntity
  8
DEFPOINTS
 62
     0
100
AcDbPoint
 10
760.087862159597
 20
325.918760030263
 30
0.0
  0
POINT
  5
5A63
330
449E
100
AcDbEntity
  8
DEFPOINTS
 62
     0
100
AcDbPoint
 10
781.087862159597
 20
356.861874030263
 30
0.0
  0
POINT
  5
5A64
330
449E
100
AcDbEntity
  8
DEFPOINTS
 62
     0
100
AcDbPoint
 10
781.087862159597
 20
295.505014681648
 30
0.0
  0
ENDBLK
  5
44A9
330
449E
100
AcDbEntity
  8
0
 48
10.0
100
AcDbBlockEnd
  0
BLOCK
  5
44B4
330
44AA
100
AcDbEntity
  8
0
 48
10.0
100
AcDbBlockBegin
  2
*D14
 70
     1
 10
0.0
 20
0.0
 30
0.0
  3
*D14
  1
*D14
  0
LINE
  5
5A53
330
44AA
100
AcDbEntity
  8
寸法線
 62
     0
 48
10.0
100
AcDbLine
 10
843.063050159598
 20
333.17177360007
 30
0.0
 11
843.063050159598
 21
294.255014681648
 31
0.0
  0
LINE
  5
5A54
330
44AA
100
AcDbEntity
  8
寸法線
 62
     0
 48
10.0
100
AcDbLine
 10
781.087862159597
 20
356.236874030263
 30
0.0
 11
781.087862159597
 21
294.255014681648
 31
0.0
  0
LINE
  5
5A55
330
44AA
100
AcDbEntity
  8
寸法線
 62
     0
 48
10.0
100
AcDbLine
 10
837.063050159598
 20
295.505014681648
 30
0.0
 11
787.087862159597
 21
295.505014681648
 31
0.0
  0
INSERT
  5
5A56
330
44AA
100
AcDbEntity
  8
寸法線
 62
     0
100
AcDbBlockReference
  2
_OPEN30
 10
843.063050159598
 20
295.505014681648
 30
0.0
 41
6.0
 42
6.0
 43
6.0
  0
INSERT
  5
5A57
330
44AA
100
AcDbEntity
  8
寸法線
 62
     0
100
AcDbBlockReference
  2
_OPEN30
 10
781.087862159597
 20
295.505014681648
 30
0.0
 41
6.0
 42
6.0
 43
6.0
 50
180.0
  0
MTEXT
  5
5A58
330
44AA
100
AcDbEntity
  8
寸法線
 62
     0
 48
10.0
100
AcDbMText
 10
812.075456159597
 20
301.130014681648
 30
0.0
 40
10.0
 41
0.0
 71
     5
 72
     1
  1
\A1;62
  0
POINT
  5
5A59
330
44AA
100
AcDbEntity
  8
DEFPOINTS
 62
     0
100
AcDbPoint
 10
843.063050159598
 20
333.79677360007
 30
0.0
  0
POINT
  5
5A5A
330
44AA
100
AcDbEntity
  8
DEFPOINTS
 62
     0
100
AcDbPoint
 10
781.087862159597
 20
356.861874030263
 30
0.0
  0
POINT
  5
5A5B
330
44AA
100
AcDbEntity
  8
DEFPOINTS
 62
     0
100
AcDbPoint
 10
781.087862159597
 20
295.505014681648
 30
0.0
  0
ENDBLK
  5
44B5
330
44AA
100
AcDbEntity
  8
0
 48
10.0
100
AcDbBlockEnd
  0
BLOCK
  5
44C0
330
44B6
100
AcDbEntity
  8
0
 48
10.0
100
AcDbBlockBegin
  2
*D15
 70
     1
 10
0.0
 20
0.0
 30
0.0
  3
*D15
  1
*D15
  0
LINE
  5
5A4A
330
44B6
100
AcDbEntity
  8
寸法線
 62
     0
 48
10.0
100
AcDbLine
 10
799.420016159598
 20
458.861874030263
 30
0.0
 11
869.787781942478
 21
458.861874030263
 31
0.0
  0
LINE
  5
5A4B
330
44B6
100
AcDbEntity
  8
寸法線
 62
     0
 48
10.0
100
AcDbLine
 10
799.420016159598
 20
356.861874030263
 30
0.0
 11
869.787781942478
 21
356.861874030263
 31
0.0
  0
LINE
  5
5A4C
330
44B6
100
AcDbEntity
  8
寸法線
 62
     0
 48
10.0
100
AcDbLine
 10
868.537781942478
 20
452.861874030263
 30
0.0
 11
868.537781942478
 21
362.861874030263
 31
0.0
  0
INSERT
  5
5A4D
330
44B6
100
AcDbEntity
  8
寸法線
 62
     0
100
AcDbBlockReference
  2
_OPEN30
 10
868.537781942478
 20
458.861874030263
 30
0.0
 41
6.0
 42
6.0
 43
6.0
 50
90.0
  0
INSERT
  5
5A4E
330
44B6
100
AcDbEntity
  8
寸法線
 62
     0
100
AcDbBlockReference
  2
_OPEN30
 10
868.537781942478
 20
356.861874030263
 30
0.0
 41
6.0
 42
6.0
 43
6.0
 50
270.0
  0
MTEXT
  5
5A4F
330
44B6
100
AcDbEntity
  8
寸法線
 62
     0
 48
10.0
100
AcDbMText
 10
862.907573609145
 20
407.249874530263
 30
0.0
 40
10.0
 41
0.0
 71
     5
 72
     1
  1
\A1;φ102
 11
0.0
 21
1.0
 31
0.0
  0
POINT
  5
5A50
330
44B6
100
AcDbEntity
  8
DEFPOINTS
 62
     0
100
AcDbPoint
 10
798.795016159598
 20
458.861874030263
 30
0.0
  0
POINT
  5
5A51
330
44B6
100
AcDbEntity
  8
DEFPOINTS
 62
     0
100
AcDbPoint
 10
798.795016159598
 20
356.861874030263
 30
0.0
  0
POINT
  5
5A52
330
44B6
100
AcDbEntity
  8
DEFPOINTS
 62
     0
100
AcDbPoint
 10
868.537781942478
 20
356.861874030263
 30
0.0
  0
ENDBLK
  5
44C1
330
44B6
100
AcDbEntity
  8
0
 48
10.0
100
AcDbBlockEnd
  0
BLOCK
  5
497E
330
4974
100
AcDbEntity
  8
0
 48
10.0
100
AcDbBlockBegin
  2
*D16
 70
     1
 10
0.0
 20
0.0
 30
0.0
  3
*D16
  1
*D16
  0
LINE
  5
5A41
330
4974
100
AcDbEntity
  8
寸法線
 62
     0
 48
10.0
100
AcDbLine
 10
443.16742547118
 20
238.015437193487
 30
0.0
 11
443.16742547118
 21
211.689915098515
 31
0.0
  0
LINE
  5
5A42
330
4974
100
AcDbEntity
  8
寸法線
 62
     0
 48
10.0
100
AcDbLine
 10
693.087862159597
 20
276.6819877087
 30
0.0
 11
693.087862159597
 21
211.689915098515
 31
0.0
  0
LINE
  5
5A43
330
4974
100
AcDbEntity
  8
寸法線
 62
     0
 48
10.0
100
AcDbLine
 10
449.16742547118
 20
212.939915098515
 30
0.0
 11
687.087862159597
 21
212.939915098515
 31
0.0
  0
INSERT
  5
5A44
330
4974
100
AcDbEntity
  8
寸法線
 62
     0
100
AcDbBlockReference
  2
_OPEN30
 10
443.16742547118
 20
212.939915098515
 30
0.0
 41
6.0
 42
6.0
 43
6.0
 50
180.0
  0
INSERT
  5
5A45
330
4974
100
AcDbEntity
  8
寸法線
 62
     0
100
AcDbBlockReference
  2
_OPEN30
 10
693.087862159597
 20
212.939915098515
 30
0.0
 41
6.0
 42
6.0
 43
6.0
  0
MTEXT
  5
5A46
330
4974
100
AcDbEntity
  8
寸法線
 62
     0
 48
10.0
100
AcDbMText
 10
568.127643815388
 20
218.570123431848
 30
0.0
 40
10.0
 41
0.0
 71
     5
 72
     1
  1
\A1;350
  0
POINT
  5
5A47
330
4974
100
AcDbEntity
  8
DEFPOINTS
 62
     0
100
AcDbPoint
 10
443.16742547118
 20
238.640437193487
 30
0.0
  0
POINT
  5
5A48
330
4974
100
AcDbEntity
  8
DEFPOINTS
 62
     0
100
AcDbPoint
 10
693.087862159597
 20
277.3069877087
 30
0.0
  0
POINT
  5
5A49
330
4974
100
AcDbEntity
  8
DEFPOINTS
 62
     0
100
AcDbPoint
 10
693.087862159597
 20
212.939915098515
 30
0.0
  0
ENDBLK
  5
497F
330
4974
100
AcDbEntity
  8
0
 48
10.0
100
AcDbBlockEnd
  0
BLOCK
  5
500F
330
5003
100
AcDbEntity
  8
0
 48
10.0
100
AcDbBlockBegin
  2
*D17
 70
     1
 10
0.0
 20
0.0
 30
0.0
  3
*D17
  1
*D17
  0
LINE
  5
5A36
330
5003
100
AcDbEntity
  8
寸法線
 62
     0
 48
10.0
100
AcDbLine
 10
550.522258774505
 20
403.002254030262
 30
0.0
 11
546.528331270368
 21
403.002254030262
 31
0.0
  0
LINE
  5
5A37
330
5003
100
AcDbEntity
  8
寸法線
 62
     0
 48
10.0
100
AcDbLine
 10
547.153331270368
 20
412.721491530262
 30
0.0
 11
546.528331270368
 21
412.721491530262
 31
0.0
  0
LINE
  5
5A38
330
5003
100
AcDbEntity
  8
寸法線
 62
     0
 48
10.0
100
AcDbLine
 10
547.778331270368
 20
412.721491530262
 30
0.0
 11
547.778331270368
 21
446.282477704803
 31
0.0
  0
LINE
  5
5A39
330
5003
100
AcDbEntity
  8
寸法線
 62
     0
 48
10.0
100
AcDbLine
 10
547.778331270368
 20
403.002254030262
 30
0.0
 11
547.778331270368
 21
412.721491530262
 31
0.0
  0
LINE
  5
5A3A
330
5003
100
AcDbEntity
  8
寸法線
 62
     0
 48
10.0
100
AcDbLine
 10
547.778331270368
 20
397.002254030262
 30
0.0
 11
547.778331270368
 21
391.002254030262
 31
0.0
  0
LINE
  5
5A3B
330
5003
100
AcDbEntity
  8
寸法線
 62
     0
 48
10.0
100
AcDbLine
 10
547.778331270368
 20
418.721491530262
 30
0.0
 11
547.778331270368
 21
424.721491530262
 31
0.0
  0
INSERT
  5
5A3C
330
5003
100
AcDbEntity
  8
寸法線
 62
     0
100
AcDbBlockReference
  2
_OPEN30
 10
547.778331270368
 20
403.002254030262
 30
0.0
 41
6.0
 42
6.0
 43
6.0
 50
90.0
  0
INSERT
  5
5A3D
330
5003
100
AcDbEntity
  8
寸法線
 62
     0
100
AcDbBlockReference
  2
_OPEN30
 10
547.778331270368
 20
412.721491530262
 30
0.0
 41
6.0
 42
6.0
 43
6.0
 50
270.0
  0
MTEXT
  5
5A3E
330
5003
100
AcDbEntity
  8
寸法線
 62
     0
 48
10.0
100
AcDbMText
 10
542.153331270368
 20
435.740811038137
 30
0.0
 40
10.0
 41
0.0
 71
     5
 72
     1
  1
\A1;φ10
 11
0.0
 21
1.0
 31
0.0
  0
POINT
  5
5A3F
330
5003
100
AcDbEntity
  8
DEFPOINTS
 62
     0
100
AcDbPoint
 10
551.147258774505
 20
403.002254030262
 30
0.0
  0
POINT
  5
5A40
330
5003
100
AcDbEntity
  8
DEFPOINTS
 62
     0
100
AcDbPoint
 10
547.778331270368
 20
412.721491530262
 30
0.0
  0
POINT
  5
5FD8
330
5003
100
AcDbEntity
  8
DEFPOINTS
 62
     0
100
AcDbPoint
 10
547.778331270368
 20
412.721491530262
 30
0.0
  0
ENDBLK
  5
5010
330
5003
100
AcDbEntity
  8
0
 48
10.0
100
AcDbBlockEnd
  0
BLOCK
  5
5028
330
501E
100
AcDbEntity
  8
0
 48
10.0
100
AcDbBlockBegin
  2
*D18
 70
     1
 10
0.0
 20
0.0
 30
0.0
  3
*D18
  1
*D18
  0
LINE
  5
5A2D
330
501E
100
AcDbEntity
  8
寸法線
 62
     0
 48
10.0
100
AcDbLine
 10
563.167425471179
 20
389.736874030263
 30
0.0
 11
563.167425471179
 21
364.111874030263
 31
0.0
  0
LINE
  5
5A2E
330
501E
100
AcDbEntity
  8
寸法線
 62
     0
 48
10.0
100
AcDbLine
 10
543.167462971179
 20
399.111874030263
 30
0.0
 11
543.167462971179
 21
364.111874030263
 31
0.0
  0
LINE
  5
5A2F
330
501E
100
AcDbEntity
  8
寸法線
 62
     0
 48
10.0
100
AcDbLine
 10
557.167425471179
 20
365.361874030263
 30
0.0
 11
549.167462971179
 21
365.361874030263
 31
0.0
  0
INSERT
  5
5A30
330
501E
100
AcDbEntity
  8
寸法線
 62
     0
100
AcDbBlockReference
  2
_OPEN30
 10
563.167425471179
 20
365.361874030263
 30
0.0
 41
6.0
 42
6.0
 43
6.0
  0
INSERT
  5
5A31
330
501E
100
AcDbEntity
  8
寸法線
 62
     0
100
AcDbBlockReference
  2
_OPEN30
 10
543.167462971179
 20
365.361874030263
 30
0.0
 41
6.0
 42
6.0
 43
6.0
 50
180.0
  0
MTEXT
  5
5A32
330
501E
100
AcDbEntity
  8
寸法線
 62
     0
 48
10.0
100
AcDbMText
 10
553.167444221179
 20
370.992082363596
 30
0.0
 40
10.0
 41
0.0
 71
     5
 72
     1
  1
\A1;20
  0
POINT
  5
5A33
330
501E
100
AcDbEntity
  8
DEFPOINTS
 62
     0
100
AcDbPoint
 10
563.167425471179
 20
390.361874030263
 30
0.0
  0
POINT
  5
5A34
330
501E
100
AcDbEntity
  8
DEFPOINTS
 62
     0
100
AcDbPoint
 10
543.167462971179
 20
399.736874030263
 30
0.0
  0
POINT
  5
5A35
330
501E
100
AcDbEntity
  8
DEFPOINTS
 62
     0
100
AcDbPoint
 10
543.167462971179
 20
365.361874030263
 30
0.0
  0
ENDBLK
  5
5029
330
501E
100
AcDbEntity
  8
0
 48
10.0
100
AcDbBlockEnd
  0
BLOCK
  5
5034
330
502A
100
AcDbEntity
  8
0
 48
10.0
100
AcDbBlockBegin
  2
*D19
 70
     1
 10
0.0
 20
0.0
 30
0.0
  3
*D19
  1
*D19
  0
LINE
  5
5A24
330
502A
100
AcDbEntity
  8
寸法線
 62
     0
 48
10.0
100
AcDbLine
 10
493.16746297118
 20
399.736874030263
 30
0.0
 11
493.16746297118
 21
364.111874030263
 31
0.0
  0
LINE
  5
5A25
330
502A
100
AcDbEntity
  8
寸法線
 62
     0
 48
10.0
100
AcDbLine
 10
543.167462971179
 20
399.736874030263
 30
0.0
 11
543.167462971179
 21
364.111874030263
 31
0.0
  0
LINE
  5
5A26
330
502A
100
AcDbEntity
  8
寸法線
 62
     0
 48
10.0
100
AcDbLine
 10
499.16746297118
 20
365.361874030263
 30
0.0
 11
537.167462971179
 21
365.361874030263
 31
0.0
  0
INSERT
  5
5A27
330
502A
100
AcDbEntity
  8
寸法線
 62
     0
100
AcDbBlockReference
  2
_OPEN30
 10
493.16746297118
 20
365.361874030263
 30
0.0
 41
6.0
 42
6.0
 43
6.0
 50
180.0
  0
INSERT
  5
5A28
330
502A
100
AcDbEntity
  8
寸法線
 62
     0
100
AcDbBlockReference
  2
_OPEN30
 10
543.167462971179
 20
365.361874030263
 30
0.0
 41
6.0
 42
6.0
 43
6.0
  0
MTEXT
  5
5A29
330
502A
100
AcDbEntity
  8
寸法線
 62
     0
 48
10.0
100
AcDbMText
 10
518.167462971179
 20
370.986874030263
 30
0.0
 40
10.0
 41
0.0
 71
     5
 72
     1
  1
\A1;50
  0
POINT
  5
5A2A
330
502A
100
AcDbEntity
  8
DEFPOINTS
 62
     0
100
AcDbPoint
 10
493.16746297118
 20
400.361874030263
 30
0.0
  0
POINT
  5
5A2B
330
502A
100
AcDbEntity
  8
DEFPOINTS
 62
     0
100
AcDbPoint
 10
543.167462971179
 20
400.361874030263
 30
0.0
  0
POINT
  5
5A2C
330
502A
100
AcDbEntity
  8
DEFPOINTS
 62
     0
100
AcDbPoint
 10
543.167462971179
 20
365.361874030263
 30
0.0
  0
ENDBLK
  5
5035
330
502A
100
AcDbEntity
  8
0
 48
10.0
100
AcDbBlockEnd
  0
BLOCK
  5
5040
330
5036
100
AcDbEntity
  8
0
 48
10.0
100
AcDbBlockBegin
  2
*D20
 70
     1
 10
0.0
 20
0.0
 30
0.0
  3
*D20
  1
*D20
  0
LINE
  5
5A1B
330
5036
100
AcDbEntity
  8
寸法線
 62
     0
 48
10.0
100
AcDbLine
 10
442.54246297118
 20
257.861874030263
 30
0.0
 11
409.41746297118
 21
257.861874030263
 31
0.0
  0
LINE
  5
5A1C
330
5036
100
AcDbEntity
  8
寸法線
 62
     0
 48
10.0
100
AcDbLine
 10
428.309019334306
 20
407.861874030263
 30
0.0
 11
409.41746297118
 21
407.861874030263
 31
0.0
  0
LINE
  5
5A1D
330
5036
100
AcDbEntity
  8
寸法線
 62
     0
 48
10.0
100
AcDbLine
 10
410.66746297118
 20
263.861874030263
 30
0.0
 11
410.66746297118
 21
401.861874030263
 31
0.0
  0
INSERT
  5
5A1E
330
5036
100
AcDbEntity
  8
寸法線
 62
     0
100
AcDbBlockReference
  2
_OPEN30
 10
410.66746297118
 20
257.861874030263
 30
0.0
 41
6.0
 42
6.0
 43
6.0
 50
270.0
  0
INSERT
  5
5A1F
330
5036
100
AcDbEntity
  8
寸法線
 62
     0
100
AcDbBlockReference
  2
_OPEN30
 10
410.66746297118
 20
407.861874030263
 30
0.0
 41
6.0
 42
6.0
 43
6.0
 50
90.0
  0
MTEXT
  5
5A20
330
5036
100
AcDbEntity
  8
寸法線
 62
     0
 48
10.0
100
AcDbMText
 10
405.04246297118
 20
332.861874030263
 30
0.0
 40
10.0
 41
0.0
 71
     5
 72
     1
  1
\A1;150
 11
0.0
 21
1.0
 31
0.0
  0
POINT
  5
5A21
330
5036
100
AcDbEntity
  8
DEFPOINTS
 62
     0
100
AcDbPoint
 10
443.16746297118
 20
257.861874030263
 30
0.0
  0
POINT
  5
5A22
330
5036
100
AcDbEntity
  8
DEFPOINTS
 62
     0
100
AcDbPoint
 10
428.934019334306
 20
407.861874030263
 30
0.0
  0
POINT
  5
5A23
330
5036
100
AcDbEntity
  8
DEFPOINTS
 62
     0
100
AcDbPoint
 10
410.66746297118
 20
407.861874030263
 30
0.0
  0
ENDBLK
  5
5041
330
5036
100
AcDbEntity
  8
0
 48
10.0
100
AcDbBlockEnd
  0
BLOCK
  5
504C
330
5042
100
AcDbEntity
  8
0
 48
10.0
100
AcDbBlockBegin
  2
*D21
 70
     1
 10
0.0
 20
0.0
 30
0.0
  3
*D21
  1
*D21
  0
LINE
  5
5A12
330
5042
100
AcDbEntity
  8
寸法線
 62
     0
 48
10.0
100
AcDbLine
 10
443.16746297118
 20
257.236874030263
 30
0.0
 11
443.16746297118
 21
232.408997564201
 31
0.0
  0
LINE
  5
5A13
330
5042
100
AcDbEntity
  8
寸法線
 62
     0
 48
10.0
100
AcDbLine
 10
543.167462971179
 20
257.236874030263
 30
0.0
 11
543.167462971179
 21
232.408997564201
 31
0.0
  0
LINE
  5
5A14
330
5042
100
AcDbEntity
  8
寸法線
 62
     0
 48
10.0
100
AcDbLine
 10
449.16746297118
 20
233.658997564201
 30
0.0
 11
537.167462971179
 21
233.658997564201
 31
0.0
  0
INSERT
  5
5A15
330
5042
100
AcDbEntity
  8
寸法線
 62
     0
100
AcDbBlockReference
  2
_OPEN30
 10
443.16746297118
 20
233.658997564201
 30
0.0
 41
6.0
 42
6.0
 43
6.0
 50
180.0
  0
INSERT
  5
5A16
330
5042
100
AcDbEntity
  8
寸法線
 62
     0
100
AcDbBlockReference
  2
_OPEN30
 10
543.167462971179
 20
233.658997564201
 30
0.0
 41
6.0
 42
6.0
 43
6.0
  0
MTEXT
  5
5A17
330
5042
100
AcDbEntity
  8
寸法線
 62
     0
 48
10.0
100
AcDbMText
 10
493.167462971179
 20
239.283997564201
 30
0.0
 40
10.0
 41
0.0
 71
     5
 72
     1
  1
\A1;100
  0
POINT
  5
5A18
330
5042
100
AcDbEntity
  8
DEFPOINTS
 62
     0
100
AcDbPoint
 10
443.16746297118
 20
257.861874030263
 30
0.0
  0
POINT
  5
5A19
330
5042
100
AcDbEntity
  8
DEFPOINTS
 62
     0
100
AcDbPoint
 10
543.167462971179
 20
257.861874030263
 30
0.0
  0
POINT
  5
5A1A
330
5042
100
AcDbEntity
  8
DEFPOINTS
 62
     0
100
AcDbPoint
 10
543.167462971179
 20
233.658997564201
 30
0.0
  0
ENDBLK
  5
504D
330
5042
100
AcDbEntity
  8
0
 48
10.0
100
AcDbBlockEnd
  0
BLOCK
  5
5F0C
330
5F0B
100
AcDbEntity
  8
0
100
AcDbBlockBegin
  2
*D48
 70
     1
 10
0.0
 20
0.0
 30
0.0
  3
*D48
  1
*D48
  0
LINE
  5
5F0E
330
5F0B
100
AcDbEntity
  8
寸法線
 62
     0
 48
10.0
100
AcDbLine
 10
197.241990135753
 20
409.736874030263
 30
0.0
 11
196.616990135753
 21
409.736874030263
 31
0.0
  0
LINE
  5
5F0F
330
5F0B
100
AcDbEntity
  8
寸法線
 62
     0
 48
10.0
100
AcDbLine
 10
197.241990135753
 20
405.986874030263
 30
0.0
 11
196.616990135753
 21
405.986874030263
 31
0.0
  0
LINE
  5
5F10
330
5F0B
100
AcDbEntity
  8
寸法線
 62
     0
 48
10.0
100
AcDbLine
 10
197.866990135753
 20
409.736874030263
 30
0.0
 11
197.866990135753
 21
435.193980811449
 31
0.0
  0
LINE
  5
5F11
330
5F0B
100
AcDbEntity
  8
寸法線
 62
     0
 48
10.0
100
AcDbLine
 10
197.866990135753
 20
409.736874030263
 30
0.0
 11
197.866990135753
 21
405.986874030263
 31
0.0
  0
LINE
  5
5F12
330
5F0B
100
AcDbEntity
  8
寸法線
 62
     0
 48
10.0
100
AcDbLine
 10
197.866990135753
 20
415.736874030263
 30
0.0
 11
197.866990135753
 21
421.736874030263
 31
0.0
  0
LINE
  5
5F13
330
5F0B
100
AcDbEntity
  8
寸法線
 62
     0
 48
10.0
100
AcDbLine
 10
197.866990135753
 20
399.986874030263
 30
0.0
 11
197.866990135753
 21
393.986874030263
 31
0.0
  0
INSERT
  5
5F14
330
5F0B
100
AcDbEntity
  8
寸法線
 62
     0
100
AcDbBlockReference
  2
_OPEN30
 10
197.866990135753
 20
409.736874030263
 30
0.0
 41
6.0
 42
6.0
 43
6.0
 50
270.0
  0
INSERT
  5
5F15
330
5F0B
100
AcDbEntity
  8
寸法線
 62
     0
100
AcDbBlockReference
  2
_OPEN30
 10
197.866990135753
 20
405.986874030263
 30
0.0
 41
6.0
 42
6.0
 43
6.0
 50
90.0
  0
MTEXT
  5
5F16
330
5F0B
100
AcDbEntity
  8
寸法線
 62
     0
 48
10.0
100
AcDbMText
 10
192.241990135753
 20
428.568980811449
 30
0.0
 40
10.0
 41
0.0
 71
     5
 72
     1
  1
\A1;1.5
 11
0.0
 21
1.0
 31
0.0
  0
POINT
  5
5F17
330
5F0B
100
AcDbEntity
  8
DEFPOINTS
 62
     0
100
AcDbPoint
 10
197.866990135753
 20
409.736874030263
 30
0.0
  0
POINT
  5
5F18
330
5F0B
100
AcDbEntity
  8
DEFPOINTS
 62
     0
100
AcDbPoint
 10
197.866990135753
 20
405.986874030263
 30
0.0
  0
POINT
  5
5F19
330
5F0B
100
AcDbEntity
  8
DEFPOINTS
 62
     0
100
AcDbPoint
 10
197.866990135753
 20
405.986874030263
 30
0.0
  0
ENDBLK
  5
5F0D
330
5F0B
100
AcDbEntity
  8
0
100
AcDbBlockEnd
  0
BLOCK
  5
5F1B
330
5F1A
100
AcDbEntity
  8
0
100
AcDbBlockBegin
  2
*D49
 70
     1
 10
0.0
 20
0.0
 30
0.0
  3
*D49
  1
*D49
  0
LINE
  5
5F1D
330
5F1A
100
AcDbEntity
  8
寸法線
 62
     0
 48
10.0
100
AcDbLine
 10
164.70197646125
 20
437.957025902345
 30
0.0
 11
164.996652655529
 21
437.405853569471
 31
0.0
  0
LINE
  5
5F1E
330
5F1A
100
AcDbEntity
  8
寸法線
 62
     0
 48
10.0
100
AcDbLine
 10
50.058131223493
 20
376.664377492432
 30
0.0
 11
50.352807417772
 21
376.113205159558
 31
0.0
  0
LINE
  5
5F1F
330
5F1A
100
AcDbEntity
  8
寸法線
 62
     0
 48
10.0
100
AcDbLine
 10
159.116045871383
 20
435.679306770146
 30
0.0
 11
55.054709424804
 21
380.044441290378
 31
0.0
  0
INSERT
  5
5F20
330
5F1A
100
AcDbEntity
  8
寸法線
 62
     0
100
AcDbBlockReference
  2
_OPEN30
 10
164.407300266972
 20
438.508198235219
 30
0.0
 41
6.0
 42
6.0
 43
6.0
 50
28.130533643436
  0
INSERT
  5
5F21
330
5F1A
100
AcDbEntity
  8
寸法線
 62
     0
100
AcDbBlockReference
  2
_OPEN30
 10
49.763455029215
 20
377.215549825305
 30
0.0
 41
6.0
 42
6.0
 43
6.0
 50
208.130533643436
  0
MTEXT
  5
5F22
330
5F1A
100
AcDbEntity
  8
寸法線
 62
     0
 48
10.0
100
AcDbMText
 10
146.68707206336
 20
435.41869410214
 30
0.0
 40
10.0
 41
0.0
 71
     5
 72
     1
  1
\A1;φ130
 11
0.8818757325981298
 21
0.4714819108454872
 31
0.0
  0
POINT
  5
5F23
330
5F1A
100
AcDbEntity
  8
DEFPOINTS
 62
     0
100
AcDbPoint
 10
164.407300266971
 20
438.508198235219
 30
0.0
  0
POINT
  5
5F24
330
5F1A
100
AcDbEntity
  8
DEFPOINTS
 62
     0
100
AcDbPoint
 10
49.763455029215
 20
377.215549825306
 30
0.0
  0
POINT
  5
5F25
330
5F1A
100
AcDbEntity
  8
DEFPOINTS
 62
     0
100
AcDbPoint
 10
49.763455029215
 20
377.215549825305
 30
0.0
  0
ENDBLK
  5
5F1C
330
5F1A
100
AcDbEntity
  8
0
100
AcDbBlockEnd
  0
BLOCK
  5
5F27
330
5F26
100
AcDbEntity
  8
0
100
AcDbBlockBegin
  2
*D50
 70
     1
 10
0.0
 20
0.0
 30
0.0
  3
*D50
  1
*D50
  0
LINE
  5
5F29
330
5F26
100
AcDbEntity
  8
寸法線
 62
     0
 48
10.0
100
AcDbLine
 10
30.836964762395
 20
393.975904225737
 30
0.0
 11
30.720029816135
 21
394.589867757506
 31
0.0
  0
LINE
  5
5F2A
330
5F26
100
AcDbEntity
  8
寸法線
 62
     0
 48
10.0
100
AcDbLine
 10
183.09992064127
 20
422.975770898327
 30
0.0
 11
182.982985695009
 21
423.589734430095
 31
0.0
  0
LINE
  5
5F2B
330
5F26
100
AcDbEntity
  8
寸法線
 62
     0
 48
10.0
100
AcDbLine
 10
36.847949613645
 20
394.484516178066
 30
0.0
 11
177.322805682542
 21
421.239231882456
 31
0.0
  0
INSERT
  5
5F2C
330
5F26
100
AcDbEntity
  8
寸法線
 62
     0
100
AcDbBlockReference
  2
_OPEN30
 10
30.953899708656
 20
393.361940693966
 30
0.0
 41
6.0
 42
6.0
 43
6.0
 50
190.783353346836
  0
INSERT
  5
5F2D
330
5F26
100
AcDbEntity
  8
寸法線
 62
     0
100
AcDbBlockReference
  2
_OPEN30
 10
183.21685558753
 20
422.361807366556
 30
0.0
 41
6.0
 42
6.0
 43
6.0
 50
10.783353346836
  0
MTEXT
  5
5F2E
330
5F26
100
AcDbEntity
  8
寸法線
 62
     0
 48
10.0
100
AcDbMText
 10
153.197213154937
 20
422.370406778596
 30
0.0
 40
10.0
 41
0.0
 71
     5
 72
     1
  1
\A1;φ155
 11
0.9823416508314472
 21
0.1870959140167074
 31
0.0
  0
POINT
  5
5F2F
330
5F26
100
AcDbEntity
  8
DEFPOINTS
 62
     0
100
AcDbPoint
 10
30.953899708656
 20
393.361940693968
 30
0.0
  0
POINT
  5
5F30
330
5F26
100
AcDbEntity
  8
DEFPOINTS
 62
     0
100
AcDbPoint
 10
183.21685558753
 20
422.361807366557
 30
0.0
  0
POINT
  5
5F31
330
5F26
100
AcDbEntity
  8
DEFPOINTS
 62
     0
100
AcDbPoint
 10
183.21685558753
 20
422.361807366556
 30
0.0
  0
ENDBLK
  5
5F28
330
5F26
100
AcDbEntity
  8
0
100
AcDbBlockEnd
  0
BLOCK
  5
5F33
330
5F32
100
AcDbEntity
  8
0
100
AcDbBlockBegin
  2
*D51
 70
     1
 10
0.0
 20
0.0
 30
0.0
  3
*D51
  1
*D51
  0
LINE
  5
5F35
330
5F32
100
AcDbEntity
  8
寸法線
 62
     0
 48
10.0
100
AcDbLine
 10
314.405062108983
 20
332.403679909035
 30
0.0
 11
318.645561396929
 21
330.860264389795
 31
0.0
  0
LINE
  5
5F36
330
5F32
100
AcDbEntity
  8
寸法線
 62
     0
 48
10.0
100
AcDbLine
 10
263.78713622053
 20
407.861874030263
 30
0.0
 11
332.223022734525
 21
407.861874030263
 31
0.0
  0
ARC
  5
5F37
330
5F32
100
AcDbEntity
  8
寸法線
 62
     0
 48
10.0
100
AcDbCircle
 10
107.085377648096
 20
407.861874030263
 30
0.0
 40
223.8876450864294
100
AcDbArc
 50
341.535524504531
 51
358.464475495468
  0
INSERT
  5
5F38
330
5F32
100
AcDbEntity
  8
寸法線
 62
     0
100
AcDbBlockReference
  2
_OPEN30
 10
317.470945620947
 20
331.287789568952
 30
0.0
 41
6.0
 42
6.0
 43
6.0
 50
250.767762252265
  0
INSERT
  5
5F39
330
5F32
100
AcDbEntity
  8
寸法線
 62
     0
100
AcDbBlockReference
  2
_OPEN30
 10
330.973022734525
 20
407.861874030263
 30
0.0
 41
6.0
 42
6.0
 43
6.0
 50
89.232237747734
  0
MTEXT
  5
5F3A
330
5F32
100
AcDbEntity
  8
寸法線
 62
     0
 48
10.0
100
AcDbMText
 10
322.021864308069
 20
369.962772293423
 30
0.0
 40
10.0
 41
0.0
 71
     5
 72
     1
  1
約\A1;20%%d
 11
0.1736481776669391
 21
0.9848077530122065
 31
0.0
  0
POINT
  5
5F3B
330
5F32
100
AcDbEntity
  8
DEFPOINTS
 62
     0
100
AcDbPoint
 10
324.938102285642
 20
356.229829810179
 30
0.0
  0
POINT
  5
5F3C
330
5F32
100
AcDbEntity
  8
DEFPOINTS
 62
     0
100
AcDbPoint
 10
14.301389382856
 20
407.861874030263
 30
0.0
  0
POINT
  5
5F3D
330
5F32
100
AcDbEntity
  8
DEFPOINTS
 62
     0
100
AcDbPoint
 10
313.817754220992
 20
332.617442498613
 30
0.0
  0
POINT
  5
5F3E
330
5F32
100
AcDbEntity
  8
DEFPOINTS
 62
     0
100
AcDbPoint
 10
136.742169581814
 20
397.067684522563
 30
0.0
  0
POINT
  5
5F3F
330
5F32
100
AcDbEntity
  8
DEFPOINTS
 62
     0
100
AcDbPoint
 10
263.16213622053
 20
407.861874030263
 30
0.0
  0
ENDBLK
  5
5F34
330
5F32
100
AcDbEntity
  8
0
100
AcDbBlockEnd
  0
BLOCK
  5
5F41
330
5F40
100
AcDbEntity
  8
0
100
AcDbBlockBegin
  2
*D52
 70
     1
 10
0.0
 20
0.0
 30
0.0
  3
*D52
  1
*D52
  0
ARC
  5
5F43
330
5F40
100
AcDbEntity
  8
寸法線
 62
     0
 48
10.0
100
AcDbCircle
 10
107.085377648079
 20
407.861874030269
 30
0.0
 40
152.3896260941472
100
AcDbArc
 50
342.256038648729
 51
342.74396135127
  0
INSERT
  5
5F44
330
5F40
100
AcDbEntity
  8
寸法線
 62
     0
100
AcDbBlockReference
  2
_OPEN30
 10
250.284784773072
 20
355.741552272201
 30
0.0
 41
6.0
 42
6.0
 43
6.0
 50
251.128019324364
  0
INSERT
  5
5F45
330
5F40
100
AcDbEntity
  8
寸法線
 62
     0
100
AcDbBlockReference
  2
_OPEN30
 10
254.28245315095
 20
368.42053652105
 30
0.0
 41
6.0
 42
6.0
 43
6.0
 50
73.871980675634
  0
MTEXT
  5
5F46
330
5F40
100
AcDbEntity
  8
寸法線
 62
     0
 48
10.0
100
AcDbMText
 10
244.65699643304
 20
376.721117086672
 30
0.0
 40
10.0
 41
0.0
 71
     5
 72
     1
  1
約\A1;5%%d
 11
0.2207748433491554
 21
0.9753248015631286
 31
0.0
  0
POINT
  5
5F47
330
5F40
100
AcDbEntity
  8
DEFPOINTS
 62
     0
100
AcDbPoint
 10
251.740109174793
 20
359.928516250448
 30
0.0
  0
POINT
  5
5F48
330
5F40
100
AcDbEntity
  8
DEFPOINTS
 62
     0
100
AcDbPoint
 10
283.366840945848
 20
360.627398299053
 30
0.0
  0
POINT
  5
5F49
330
5F40
100
AcDbEntity
  8
DEFPOINTS
 62
     0
100
AcDbPoint
 10
313.817754220992
 20
332.617442498613
 30
0.0
  0
POINT
  5
5F4A
330
5F40
100
AcDbEntity
  8
DEFPOINTS
 62
     0
100
AcDbPoint
 10
136.742169581814
 20
397.067684522563
 30
0.0
  0
POINT
  5
5F4B
330
5F40
100
AcDbEntity
  8
DEFPOINTS
 62
     0
100
AcDbPoint
 10
242.200561572316
 20
371.657869612585
 30
0.0
  0
ENDBLK
  5
5F42
330
5F40
100
AcDbEntity
  8
0
100
AcDbBlockEnd
  0
BLOCK
  5
603B
330
603A
100
AcDbEntity
  8
0
100
AcDbBlockBegin
  2
*D53
 70
     1
 10
0.0
 20
0.0
 30
0.0
  3
*D53
  1
*D53
  0
LINE
  5
603D
330
603A
100
AcDbEntity
  8
寸法線
 62
     0
 48
10.0
100
AcDbLine
 10
468.16746297118
 20
399.736874030263
 30
0.0
 11
468.16746297118
 21
364.111874030263
 31
0.0
  0
LINE
  5
603E
330
603A
100
AcDbEntity
  8
寸法線
 62
     0
 48
10.0
100
AcDbLine
 10
493.16746297118
 20
399.736874030263
 30
0.0
 11
493.16746297118
 21
364.111874030263
 31
0.0
  0
LINE
  5
603F
330
603A
100
AcDbEntity
  8
寸法線
 62
     0
 48
10.0
100
AcDbLine
 10
474.16746297118
 20
365.361874030263
 30
0.0
 11
487.16746297118
 21
365.361874030263
 31
0.0
  0
INSERT
  5
6040
330
603A
100
AcDbEntity
  8
寸法線
 62
     0
100
AcDbBlockReference
  2
_OPEN30
 10
468.16746297118
 20
365.361874030263
 30
0.0
 41
6.0
 42
6.0
 43
6.0
 50
180.0
  0
INSERT
  5
6041
330
603A
100
AcDbEntity
  8
寸法線
 62
     0
100
AcDbBlockReference
  2
_OPEN30
 10
493.16746297118
 20
365.361874030263
 30
0.0
 41
6.0
 42
6.0
 43
6.0
  0
MTEXT
  5
6042
330
603A
100
AcDbEntity
  8
寸法線
 62
     0
 48
10.0
100
AcDbMText
 10
480.66746297118
 20
370.992082363596
 30
0.0
 40
10.0
 41
0.0
 71
     5
 72
     1
  1
\A1;25
  0
POINT
  5
6043
330
603A
100
AcDbEntity
  8
DEFPOINTS
 62
     0
100
AcDbPoint
 10
468.16746297118
 20
400.361874030263
 30
0.0
  0
POINT
  5
6044
330
603A
100
AcDbEntity
  8
DEFPOINTS
 62
     0
100
AcDbPoint
 10
493.16746297118
 20
400.361874030263
 30
0.0
  0
POINT
  5
6045
330
603A
100
AcDbEntity
  8
DEFPOINTS
 62
     0
100
AcDbPoint
 10
493.16746297118
 20
365.361874030263
 30
0.0
  0
ENDBLK
  5
603C
330
603A
100
AcDbEntity
  8
0
100
AcDbBlockEnd
  0
ENDSEC
  0
SECTION
  2
ENTITIES
  0
TEXT
  5
3002
330
1A
100
AcDbEntity
  8
寸法線
100
AcDbText
 10
105.516465553983
 20
17.83343372536
 30
0.0
 40
11.25
  1
C-H間：ON
 41
0.933398427235
 72
     5
 11
169.045896007678
 21
17.83343372536
 31
0.0
100
AcDbText
  0
TEXT
  5
3003
330
1A
100
AcDbEntity
  8
寸法線
100
AcDbText
 10
80.221851143336
 20
30.223167382189
 30
0.0
 40
11.25
  1
端子C-L間：OFF
 41
0.951601117185
 72
     5
 11
176.036188629872
 21
30.223167382189
 31
0.0
100
AcDbText
  0
TEXT
  5
3004
330
1A
100
AcDbEntity
  8
寸法線
100
AcDbText
 10
106.405344709417
 20
48.09562785929
 30
0.0
 40
11.25
  1
C-H間：OFF
 41
0.917123965436
 72
     5
 11
175.017681373603
 21
48.09562785929
 31
0.0
100
AcDbText
  0
TEXT
  5
3005
330
1A
100
AcDbEntity
  8
寸法線
100
AcDbText
 10
80.221851143336
 20
60.973824882189
 30
0.0
 40
11.25
  1
端子C-L間：ON
 41
0.958083832335
 72
     5
 11
170.221851143336
 21
60.973824882189
 31
0.0
100
AcDbText
  0
LINE
  5
3008
102
{ACAD_REACTORS
330
36B7
102
}
330
1A
100
AcDbEntity
  8
寸法線
100
AcDbLine
 10
70.59687965563
 20
27.473244882189
 30
0.0
 11
70.973773643336
 21
27.850138869896
 31
0.0
  0
TEXT
  5
3081
330
1A
100
AcDbEntity
  8
寸法線
100
AcDbText
 10
279.894397928067
 20
21.147186590178
 30
0.0
 40
10.0
  1
H
100
AcDbText
  0
TEXT
  5
3082
330
1A
100
AcDbEntity
  8
寸法線
100
AcDbText
 10
254.143895428067
 20
21.397181590178
 30
0.0
 40
10.0
  1
C
100
AcDbText
  0
TEXT
  5
3083
330
1A
100
AcDbEntity
  8
寸法線
100
AcDbText
 10
228.268345428067
 20
21.147186590178
 30
0.0
 40
10.0
  1
L
100
AcDbText
  0
TEXT
  5
308A
330
1A
100
AcDbEntity
  8
寸法線
100
AcDbText
 10
220.887975428067
 20
71.208994090178
 30
0.0
 40
10.0
  1
キ
 41
1.071428571429
  7
EXCADSTD
 72
     5
 11
230.887975428067
 21
71.208994090178
 31
0.0
100
AcDbText
  0
TEXT
  5
308B
330
1A
100
AcDbEntity
  8
寸法線
100
AcDbText
 10
273.889072928067
 20
71.959039090178
 30
0.0
 40
10.0
  1
キ
 41
1.071428571429
  7
EXCADSTD
 72
     5
 11
283.889072928067
 21
71.959039090178
 31
0.0
100
AcDbText
  0
TEXT
  5
308C
330
1A
100
AcDbEntity
  8
寸法線
100
AcDbText
 10
247.388522928067
 20
71.959039090178
 30
0.0
 40
10.0
  1
キ
 41
1.071428571429
  7
EXCADSTD
 72
     5
 11
257.388522928067
 21
71.959039090178
 31
0.0
100
AcDbText
  0
CIRCLE
  5
308D
330
1A
100
AcDbEntity
  8
寸法線
100
AcDbCircle
 10
284.704197928067
 20
35.239374090178
 30
0.0
 40
1.9999975
  0
CIRCLE
  5
308E
330
1A
100
AcDbEntity
  8
寸法線
100
AcDbCircle
 10
258.821705428067
 20
35.239374090178
 30
0.0
 40
1.9999975
  0
CIRCLE
  5
308F
330
1A
100
AcDbEntity
  8
寸法線
100
AcDbCircle
 10
232.939212928067
 20
35.239374090178
 30
0.0
 40
1.9999975
  0
LINE
  5
3090
330
1A
100
AcDbEntity
  8
寸法線
100
AcDbLine
 10
284.704197928067
 20
142.488519090178
 30
0.0
 11
284.704197928067
 21
37.239419090178
 31
0.0
  0
LINE
  5
3091
330
1A
100
AcDbEntity
  8
寸法線
100
AcDbLine
 10
258.821705428067
 20
93.579524090178
 30
0.0
 11
258.821705428067
 21
37.239419090178
 31
0.0
  0
LINE
  5
3092
330
1A
100
AcDbEntity
  8
寸法線
100
AcDbLine
 10
232.939212928067
 20
142.488519090178
 30
0.0
 11
232.939212928067
 21
37.239419090178
 31
0.0
  0
LINE
  5
3093
330
1A
100
AcDbEntity
  8
寸法線
100
AcDbLine
 10
258.821705428067
 20
97.579539090178
 30
0.0
 11
251.004170428067
 21
115.855524090178
 31
0.0
  0
CIRCLE
  5
3094
330
1A
100
AcDbEntity
  8
寸法線
100
AcDbCircle
 10
268.639210428067
 20
115.855524090178
 30
0.0
 40
2.0000075
  0
LINE
  5
3095
330
1A
100
AcDbEntity
  8
寸法線
100
AcDbLine
 10
268.639210428067
 20
142.488519090178
 30
0.0
 11
268.639210428067
 21
117.855494090178
 31
0.0
  0
CIRCLE
  5
3096
330
1A
100
AcDbEntity
  8
寸法線
100
AcDbCircle
 10
249.004200428067
 20
115.855524090178
 30
0.0
 40
2.0000075
  0
CIRCLE
  5
3097
330
1A
100
AcDbEntity
  8
寸法線
100
AcDbCircle
 10
258.821705428067
 20
95.579569090178
 30
0.0
 40
2.0000075
  0
LINE
  5
3098
330
1A
100
AcDbEntity
  8
寸法線
100
AcDbLine
 10
268.639210428067
 20
142.488519090178
 30
0.0
 11
284.704197928067
 21
142.488519090178
 31
0.0
  0
LINE
  5
3099
330
1A
100
AcDbEntity
  8
寸法線
100
AcDbLine
 10
249.004200428067
 20
142.488519090178
 30
0.0
 11
249.004200428067
 21
117.855494090178
 31
0.0
  0
LINE
  5
309A
330
1A
100
AcDbEntity
  8
寸法線
100
AcDbLine
 10
232.939212928067
 20
142.488519090178
 30
0.0
 11
249.004200428067
 21
142.488519090178
 31
0.0
  0
LINE
  5
30BE
102
{ACAD_REACTORS
330
36B7
102
}
330
1A
100
AcDbEntity
  8
寸法線
100
AcDbLine
 10
33.473773643336
 20
39.973244882189
 30
0.0
 11
33.473773643336
 21
27.473244882189
 31
0.0
  0
LINE
  5
30BF
102
{ACAD_REACTORS
330
36B7
102
}
330
1A
100
AcDbEntity
  8
寸法線
100
AcDbLine
 10
70.973773643336
 20
39.973244882189
 30
0.0
 11
33.473773643336
 21
39.973244882189
 31
0.0
  0
LINE
  5
30C0
102
{ACAD_REACTORS
330
36B7
102
}
330
1A
100
AcDbEntity
  8
寸法線
100
AcDbLine
 10
70.973773643336
 20
27.473244882189
 30
0.0
 11
70.973773643336
 21
39.973244882189
 31
0.0
  0
LINE
  5
30C1
102
{ACAD_REACTORS
330
36B7
102
}
330
1A
100
AcDbEntity
  8
寸法線
100
AcDbLine
 10
33.473773643336
 20
27.473244882189
 30
0.0
 11
70.973773643336
 21
27.473244882189
 31
0.0
  0
LINE
  5
30C2
330
1A
100
AcDbEntity
  8
寸法線
100
AcDbLine
 10
33.223758643336
 20
70.973914882189
 30
0.0
 11
33.223758643336
 21
58.473914882189
 31
0.0
  0
LINE
  5
30C3
330
1A
100
AcDbEntity
  8
寸法線
100
AcDbLine
 10
70.723758643336
 20
70.973914882189
 30
0.0
 11
33.223758643336
 21
70.973914882189
 31
0.0
  0
LINE
  5
30C4
330
1A
100
AcDbEntity
  8
寸法線
100
AcDbLine
 10
70.723758643336
 20
58.473914882189
 30
0.0
 11
70.723758643336
 21
70.973914882189
 31
0.0
  0
LINE
  5
30C5
330
1A
100
AcDbEntity
  8
寸法線
100
AcDbLine
 10
33.223758643336
 20
58.473914882189
 30
0.0
 11
70.723758643336
 21
58.473914882189
 31
0.0
  0
LINE
  5
314D
330
1A
100
AcDbEntity
  8
下書線
100
AcDbLine
 10
168.405746363761
 20
503.363887780262
 30
0.0
 11
894.573966230729
 21
503.363887780262
 31
0.0
  0
MTEXT
  5
33D6
330
1A
100
AcDbEntity
  8
寸法線
 48
10.0
100
AcDbMText
 10
445.442242725836
 20
514.365159931923
 30
0.0
 40
10.0
 41
0.0
 71
     1
 72
     5
  1
SUS304
  0
MTEXT
  5
33E8
330
1A
100
AcDbEntity
  8
寸法線
 48
10.0
100
AcDbMText
 10
507.776564052967
 20
514.92735513649
 30
0.0
 40
10.0
 41
0.0
 71
     1
 72
     5
  1
SUS304
  0
MTEXT
  5
34A7
330
1A
100
AcDbEntity
  8
寸法線
 48
10.0
100
AcDbMText
 10
384.101159435812
 20
514.339193702534
 30
0.0
 40
10.0
 41
0.0
 71
     1
 72
     5
  1
SUS304
  0
HATCH
  5
36B7
330
1A
100
AcDbEntity
  8
細線
 48
10.0
100
AcDbHatch
 10
0.0
 20
0.0
 30
0.0
210
0.0
220
0.0
230
1.0
  2
ANSI31
 70
     0
 71
     1
 91
        1
 92
        7
 72
     0
 73
     1
 93
        5
 10
70.59687965563
 20
27.47324488218942
 10
70.97377364333624
 20
27.85013886989567
 10
70.97377364333624
 20
39.97324488218942
 10
33.47377364333624
 20
39.97324488218942
 10
33.47377364333624
 20
27.47324488218942
 97
        5
330
3008
330
30C0
330
30BF
330
30BE
330
30C1
 75
     0
 76
     1
 52
0.0
 41
1.0
 77
     0
 78
     1
 53
45.0
 43
-118.4204350126411
 44
-18.83662245780448
 45
-2.245064030267288
 46
2.245064030267288
 79
     0
 47
0.103426171505
 98
        1
 10
62.72424421604319
 20
35.20073653008234
  0
LINE
  5
3B85
330
1A
100
AcDbEntity
  8
中心線
 48
10.0
100
AcDbLine
 10
431.145832941277
 20
407.861874030263
 30
0.0
 11
843.063082159597
 21
407.861874030263
 31
0.0
  0
LINE
  5
3FE4
330
1A
100
AcDbEntity
  8
外形線
 48
10.0
100
AcDbLine
 10
563.16742547118
 20
424.861867486803
 30
0.0
 11
621.668004026975
 21
424.861873866739
 31
0.0
  0
LINE
  5
3FE5
330
1A
100
AcDbEntity
  8
外形線
 48
10.0
100
AcDbLine
 10
563.167425471179
 20
390.86191244656
 30
0.0
 11
621.660060428298
 21
390.861874995386
 31
0.0
  0
MTEXT
  5
4006
330
1A
100
AcDbEntity
  8
寸法線
 48
10.0
100
AcDbMText
 10
573.931436302815
 20
515.087981463695
 30
0.0
 40
10.0
 41
0.0
 71
     1
 72
     5
  1
SUS304
  0
DIMENSION
  5
401E
330
1A
100
AcDbEntity
  8
寸法線
 48
10.0
100
AcDbDimension
  2
*D5
 10
662.390674754918
 20
390.861874030263
 30
0.0
 11
662.390674754918
 21
443.236874030263
 31
0.0
 70
   160
  1
φ<>
  3
ISO-25
100
AcDbAlignedDimension
 13
662.390674754918
 23
424.861874030263
 33
0.0
 14
662.390686498601
 24
390.861874030263
 34
0.0
 50
90.0
100
AcDbRotatedDimension
1001
ACAD
1000
DSTYLE
1002
{
1070
     5
1000
OPEN30
1070
    41
1040
6.0
1070
    47
1040
0.1
1070
    48
1040
0.1
1070
    73
1070
     0
1070
   140
1040
10.0
1070
   271
1070
     1
1070
   272
1070
     1
1070
   341
1005
2AEB
1002
}
  0
LINE
  5
41DD
330
1A
100
AcDbEntity
  8
外形線
 48
10.0
100
AcDbLine
 10
563.16742547118
 20
424.861867486803
 30
0.0
 11
563.167425471179
 21
390.86191244656
 31
0.0
  0
MTEXT
  5
43DC
330
1A
100
AcDbEntity
  8
寸法線
 48
10.0
100
AcDbMText
 10
791.264297790624
 20
348.092232615103
 30
0.0
 40
10.0
 41
65.843230169923
 71
     1
 72
     5
  1
導線取出口\PG 1/2"
1001
ACAD
1000
MTEXTBEGIN
1070
    44
1040
0.8
1000
MTEXTEND
  0
DIMENSION
  5
43DD
330
1A
100
AcDbEntity
  8
寸法線
 48
10.0
100
AcDbDimension
  2
*D10
 10
843.063050159598
 20
272.330505718918
 30
0.0
 11
768.075456159598
 21
272.330505718918
 31
0.0
 70
   160
  3
ISO-25
100
AcDbAlignedDimension
 13
693.087862159598
 23
294.255014681648
 33
0.0
 14
843.063050159598
 24
307.141623389817
 34
0.0
100
AcDbRotatedDimension
1001
ACAD
1000
DSTYLE
1002
{
1070
     5
1000
OPEN30
1070
    41
1040
6.0
1070
    47
1040
0.1
1070
    48
1040
0.1
1070
    73
1070
     0
1070
   140
1040
10.0
1070
   271
1070
     1
1070
   272
1070
     1
1070
   341
1005
2AEB
1002
}
  0
DIMENSION
  5
43DE
330
1A
100
AcDbEntity
  8
寸法線
 48
10.0
100
AcDbDimension
  2
*D11
 10
703.087862159598
 20
295.505014681648
 30
0.0
 11
698.087862159598
 21
300.130014681648
 31
0.0
 70
    32
  3
ISO-25
100
AcDbAlignedDimension
 13
693.087862159598
 23
330.361796530263
 33
0.0
 14
703.087862159598
 24
330.361796530263
 34
0.0
100
AcDbRotatedDimension
1001
ACAD
1000
DSTYLE
1002
{
1070
     5
1000
OPEN30
1070
    41
1040
6.0
1070
    47
1040
0.1
1070
    48
1040
0.1
1070
    73
1070
     0
1070
   140
1040
8.0
1070
   271
1070
     1
1070
   272
1070
     1
1070
   341
1005
2AEB
1002
}
  0
DIMENSION
  5
43DF
330
1A
100
AcDbEntity
  8
寸法線
 48
10.0
100
AcDbDimension
  2
*D12
 10
760.087862159597
 20
295.505014681648
 30
0.0
 11
731.587862159597
 21
301.130014681648
 31
0.0
 70
    32
  3
ISO-25
100
AcDbAlignedDimension
 13
703.087862159598
 23
330.361796530263
 33
0.0
 14
760.087862159597
 24
325.918760030263
 34
0.0
100
AcDbRotatedDimension
1001
ACAD
1000
DSTYLE
1002
{
1070
     5
1000
OPEN30
1070
    41
1040
6.0
1070
    47
1040
0.1
1070
    48
1040
0.1
1070
    73
1070
     0
1070
   140
1040
10.0
1070
   271
1070
     1
1070
   272
1070
     1
1070
   341
1005
2AEB
1002
}
  0
DIMENSION
  5
43E0
330
1A
100
AcDbEntity
  8
寸法線
 48
10.0
100
AcDbDimension
  2
*D13
 10
781.087862159597
 20
295.505014681648
 30
0.0
 11
770.587862159597
 21
301.135223014982
 31
0.0
 70
    32
  3
ISO-25
100
AcDbAlignedDimension
 13
760.087862159597
 23
325.918760030263
 33
0.0
 14
781.087862159597
 24
356.861874030263
 34
0.0
100
AcDbRotatedDimension
1001
ACAD
1000
DSTYLE
1002
{
1070
     5
1000
OPEN30
1070
    41
1040
6.0
1070
    47
1040
0.1
1070
    48
1040
0.1
1070
    73
1070
     0
1070
   140
1040
10.0
1070
   271
1070
     1
1070
   272
1070
     1
1070
   341
1005
2AEB
1002
}
  0
DIMENSION
  5
43E1
330
1A
100
AcDbEntity
  8
寸法線
 48
10.0
100
AcDbDimension
  2
*D14
 10
781.087862159597
 20
295.505014681648
 30
0.0
 11
812.075456159597
 21
301.130014681648
 31
0.0
 70
    32
  3
ISO-25
100
AcDbAlignedDimension
 13
843.063050159598
 23
333.79677360007
 33
0.0
 14
781.087862159597
 24
356.861874030263
 34
0.0
100
AcDbRotatedDimension
1001
ACAD
1000
DSTYLE
1002
{
1070
     5
1000
OPEN30
1070
    41
1040
6.0
1070
    47
1040
0.1
1070
    48
1040
0.1
1070
    73
1070
     0
1070
   140
1040
10.0
1070
   271
1070
     1
1070
   272
1070
     1
1070
   341
1005
2AEB
1002
}
  0
DIMENSION
  5
43E2
330
1A
100
AcDbEntity
  8
寸法線
 48
10.0
100
AcDbDimension
  2
*D15
 10
868.537781942478
 20
356.861874030263
 30
0.0
 11
868.537781942478
 21
407.249874530263
 31
0.0
 70
   160
  1
φ102
  3
ISO-25
100
AcDbAlignedDimension
 13
798.795016159598
 23
458.861874030263
 33
0.0
 14
798.795016159598
 24
356.861874030263
 34
0.0
 50
90.0
100
AcDbRotatedDimension
1001
ACAD
1000
DSTYLE
1002
{
1070
     5
1000
OPEN30
1070
    41
1040
6.0
1070
    47
1040
0.1
1070
    48
1040
0.1
1070
    73
1070
     0
1070
   140
1040
10.0
1070
   271
1070
     1
1070
   272
1070
     1
1070
   341
1005
2AEB
1002
}
  0
MTEXT
  5
4435
102
{ACAD_XDICTIONARY
360
6036
102
}
330
1A
100
AcDbEntity
  8
寸法線
 48
10.0
100
AcDbMText
 10
641.438414385227
 20
504.65925405189
 30
0.0
 40
10.0
 41
0.0
 71
     7
 72
     1
  1
\A1;フランジ\Pアルミ鋳物
1001
ACADANNOTATIVE
1000
AnnotativeData
1002
{
1070
     1
1070
     0
1002
}
  0
MTEXT
  5
4436
330
1A
100
AcDbEntity
  8
寸法線
 48
10.0
100
AcDbMText
 10
716.704251051181
 20
504.536297499319
 30
0.0
 40
10.0
 41
0.0
 71
     7
 72
     1
  1
\A1;アルミ鋳物
  0
MTEXT
  5
4437
330
1A
100
AcDbEntity
  8
寸法線
 48
10.0
100
AcDbMText
 10
787.845126477025
 20
503.963898267605
 30
0.0
 40
10.0
 41
0.0
 71
     7
 72
     1
  1
\A1;Oリング
  0
MTEXT
  5
4438
330
1A
100
AcDbEntity
  8
寸法線
 48
10.0
100
AcDbMText
 10
846.320296414168
 20
503.677698651748
 30
0.0
 40
10.0
 41
0.0
 71
     7
 72
     1
  1
\A1;アルミ鋳物
  0
ARC
  5
4721
330
1A
100
AcDbEntity
  8
細線
100
AcDbCircle
 10
627.003241665649
 20
405.361874030262
 30
0.0
 40
5.0
100
AcDbArc
 50
329.999999999999
 51
30.0
  0
ARC
  5
4722
330
1A
100
AcDbEntity
  8
細線
100
AcDbCircle
 10
635.663495703493
 20
405.361874030262
 30
0.0
 40
5.0
100
AcDbArc
 50
150.0
 51
210.0
  0
LINE
  5
4723
330
1A
100
AcDbEntity
  8
外形線
100
AcDbLine
 10
640.135676684571
 20
402.861874030262
 30
0.0
 11
631.333368684571
 21
402.861874030262
 31
0.0
  0
ARC
  5
4724
330
1A
100
AcDbEntity
  8
細線
100
AcDbCircle
 10
653.708978684571
 20
399.644834030262
 30
0.0
 40
17.701182
100
AcDbArc
 50
169.528815071374
 51
209.004633127638
  0
ARC
  5
4725
330
1A
100
AcDbEntity
  8
細線
100
AcDbCircle
 10
623.719142684571
 20
399.461880030262
 30
0.0
 40
16.76491
100
AcDbArc
 50
329.93075624098
 51
30.069265854605
  0
ARC
  5
4726
330
1A
100
AcDbEntity
  8
細線
100
AcDbCircle
 10
623.203194531675
 20
405.361872530262
 30
0.0
 40
5.0
100
AcDbArc
 50
330.000019847838
 51
30.000019847843
  0
LINE
  5
4727
330
1A
100
AcDbEntity
  8
外形線
100
AcDbLine
 10
623.682856684571
 20
402.861874030262
 30
0.0
 11
627.533320684571
 21
402.861874030262
 31
0.0
  0
ARC
  5
4728
330
1A
100
AcDbEntity
  8
細線
100
AcDbCircle
 10
607.247248684571
 20
399.461880030262
 30
0.0
 40
16.7836
100
AcDbArc
 50
329.967712018777
 51
30.032310076827
  0
LINE
  5
4729
330
1A
100
AcDbEntity
  8
外形線
100
AcDbLine
 10
638.227840355557
 20
391.061886030262
 30
0.0
 11
693.087862159597
 21
391.061886030262
 31
0.0
  0
ARC
  5
472B
330
1A
100
AcDbEntity
  8
細線
100
AcDbCircle
 10
635.663495703493
 20
410.361874030262
 30
0.0
 40
5.0
100
AcDbArc
 50
150.0
 51
210.0
  0
LINE
  5
472C
330
1A
100
AcDbEntity
  8
外形線
100
AcDbLine
 10
631.333368684571
 20
412.861874030262
 30
0.0
 11
636.327600684571
 21
412.861874030262
 31
0.0
  0
ARC
  5
472D
330
1A
100
AcDbEntity
  8
細線
100
AcDbCircle
 10
652.802240684571
 20
416.261868030263
 30
0.0
 40
16.82178
100
AcDbArc
 50
150.042864233653
 51
209.957175462036
  0
ARC
  5
472E
330
1A
100
AcDbEntity
  8
細線
100
AcDbCircle
 10
631.863446837467
 20
410.361875530262
 30
0.0
 40
5.0
100
AcDbArc
 50
150.000019847839
 51
210.000019847843
  0
ARC
  5
472F
330
1A
100
AcDbEntity
  8
細線
100
AcDbCircle
 10
623.203192799623
 20
410.361872530262
 30
0.0
 40
5.0
100
AcDbArc
 50
330.000019847838
 51
30.000019847843
  0
LINE
  5
4730
330
1A
100
AcDbEntity
  8
外形線
100
AcDbLine
 10
619.899500684571
 20
412.861874030262
 30
0.0
 11
627.533320684571
 21
412.861874030262
 31
0.0
  0
ARC
  5
4731
330
1A
100
AcDbEntity
  8
細線
100
AcDbCircle
 10
605.542506684571
 20
415.898892030262
 30
0.0
 40
18.44903
100
AcDbArc
 50
350.525036637612
 51
28.358241991014
  0
ARC
  5
4732
330
1A
100
AcDbEntity
  8
細線
100
AcDbCircle
 10
636.546076684571
 20
416.261868030263
 30
0.0
 40
16.99026
100
AcDbArc
 50
150.369793951545
 51
209.630245744144
  0
LINE
  5
4733
330
1A
100
AcDbEntity
  8
外形線
100
AcDbLine
 10
638.227866489829
 20
424.661862030262
 30
0.0
 11
693.087862159597
 21
424.661862030262
 31
0.0
  0
DIMENSION
  5
4973
330
1A
100
AcDbEntity
  8
寸法線
 48
10.0
100
AcDbDimension
  2
*D16
 10
693.087862159597
 20
212.939915098515
 30
0.0
 11
568.127643815388
 21
212.939915098515
 31
0.0
 70
   160
  1
350
  3
ISO-25
100
AcDbAlignedDimension
 13
443.16742547118
 23
238.640437193487
 33
0.0
 14
693.087862159597
 24
277.3069877087
 34
0.0
100
AcDbRotatedDimension
1001
ACAD
1000
DSTYLE
1002
{
1070
     5
1000
OPEN30
1070
    41
1040
6.0
1070
    47
1040
0.1
1070
    48
1040
0.1
1070
    73
1070
     0
1070
   140
1040
10.0
1070
   271
1070
     1
1070
   272
1070
     1
1070
   341
1005
2AEB
1002
}
  0
LEADER
  5
4AB0
330
1A
100
AcDbEntity
  8
寸法線
 48
10.0
100
AcDbLeader
  3
ISO-25
 76
     3
 10
615.145365416564
 20
424.923893408621
 30
0.0
 10
617.51560831032
 20
503.41074545513
 30
0.0
 10
605.723626004396
 20
503.41074545513
 30
0.0
213
-23.70978319635606
223
0.0
233
0.0
1001
ACAD
1000
DSTYLE
1002
{
1070
     5
1000
OPEN30
1070
   147
1040
0.625
1070
    77
1070
     0
1070
    41
1040
6.0
1070
    47
1040
0.1
1070
    48
1040
0.1
1070
    73
1070
     0
1070
   140
1040
5.0
1070
   271
1070
     1
1070
   272
1070
     1
1070
   341
1005
2AEB
1070
   342
1005
2AEB
1002
}
  0
LEADER
  5
4AB1
330
1A
100
AcDbEntity
  8
寸法線
 48
10.0
100
AcDbLeader
  3
ISO-25
 76
     3
 10
698.889833577679
 20
485.358770994584
 30
0.0
 10
703.134502299495
 20
503.41074545513
 30
0.0
 10
690.806520797847
 20
503.41074545513
 30
0.0
213
-18.73634758323738
223
0.0
233
0.0
1001
ACAD
1000
DSTYLE
1002
{
1070
     5
1000
OPEN30
1070
   147
1040
0.625
1070
    77
1070
     0
1070
    41
1040
6.0
1070
    47
1040
0.1
1070
    48
1040
0.1
1070
    73
1070
     0
1070
   140
1040
5.0
1070
   271
1070
     1
1070
   272
1070
     1
1070
   341
1005
2AEB
1070
   342
1005
2AEB
1002
}
  0
LEADER
  5
4AB2
330
1A
100
AcDbEntity
  8
寸法線
 48
10.0
100
AcDbLeader
  3
ISO-25
 76
     3
 10
555.194829987131
 20
412.758433350198
 30
0.0
 10
551.012886618365
 20
503.41074545513
 30
0.0
 10
540.292902703889
 20
503.41074545513
 30
0.0
213
-18.71117700046898
223
0.0
233
0.0
1001
ACAD
1000
DSTYLE
1002
{
1070
     5
1000
OPEN30
1070
   147
1040
0.625
1070
    77
1070
     0
1070
    41
1040
6.0
1070
    47
1040
0.1
1070
    48
1040
0.1
1070
    73
1070
     0
1070
   140
1040
5.0
1070
   271
1070
     1
1070
   272
1070
     1
1070
   341
1005
2AEB
1070
   342
1005
2AEB
1002
}
  0
LEADER
  5
4AB3
330
1A
100
AcDbEntity
  8
寸法線
 48
10.0
100
AcDbLeader
  3
ISO-25
 76
     3
 10
480.512860421117
 20
415.290393119308
 30
0.0
 10
488.453766169119
 20
503.41074545513
 30
0.0
 10
479.073780243953
 20
503.41074545513
 30
0.0
213
-19.10169510414039
223
0.0
233
0.0
1001
ACAD
1000
DSTYLE
1002
{
1070
     5
1000
OPEN30
1070
   147
1040
0.625
1070
    77
1070
     0
1070
    41
1040
6.0
1070
    47
1040
0.1
1070
    48
1040
0.1
1070
    73
1070
     0
1070
   140
1040
5.0
1070
   271
1070
     1
1070
   272
1070
     1
1070
   341
1005
2AEB
1070
   342
1005
2AEB
1002
}
  0
LEADER
  5
4AB4
330
1A
100
AcDbEntity
  8
寸法線
 48
10.0
100
AcDbLeader
  3
ISO-25
 76
     3
 10
449.753794421852
 20
409.827357745269
 30
0.0
 10
427.820198985115
 20
503.399467761548
 30
0.0
 10
415.760217081329
 20
503.399467761548
 30
0.0
213
-19.39579090731144
223
0.0
233
0.0
1001
ACAD
1000
DSTYLE
1002
{
1070
     5
1000
OPEN30
1070
   147
1040
0.625
1070
    77
1070
     0
1070
    41
1040
6.0
1070
    47
1040
0.1
1070
    48
1040
0.1
1070
    73
1070
     0
1070
   140
1040
5.0
1070
   271
1070
     1
1070
   272
1070
     1
1070
   341
1005
2AEB
1070
   342
1005
2AEB
1002
}
  0
LEADER
  5
4ACA
330
1A
100
AcDbEntity
  8
寸法線
 48
10.0
100
AcDbLeader
  3
ISO-25
 76
     3
 10
781.889139838782
 20
459.042270170535
 30
0.0
 10
788.085007492716
 20
503.333918660773
 30
0.0
 10
798.804991407192
 20
503.333918660773
 30
0.0
213
-17.95917766912271
223
0.0
233
0.0
1001
ACAD
1000
DSTYLE
1002
{
1070
     5
1000
OPEN30
1070
   147
1040
0.625
1070
    77
1070
     0
1070
    41
1040
6.0
1070
    47
1040
0.1
1070
    48
1040
0.1
1070
    73
1070
     0
1070
   140
1040
5.0
1070
   271
1070
     1
1070
   272
1070
     1
1070
   341
1005
2AEB
1070
   342
1005
2AEB
1002
}
  0
LEADER
  5
4ACB
330
1A
100
AcDbEntity
  8
寸法線
 48
10.0
100
AcDbLeader
  3
ISO-25
 76
     3
 10
741.226917590548
 20
452.000520402118
 30
0.0
 10
717.484382841878
 20
503.333918660773
 30
0.0
 10
729.148236471238
 20
503.333918660773
 30
0.0
213
-56.34890470540245
223
0.0
233
0.0
1001
ACAD
1000
DSTYLE
1002
{
1070
     5
1000
OPEN30
1070
   147
1040
0.625
1070
    77
1070
     0
1070
    41
1040
6.0
1070
    47
1040
0.1
1070
    48
1040
0.1
1070
    73
1070
     0
1070
   140
1040
5.0
1070
   271
1070
     1
1070
   272
1070
     1
1070
   341
1005
2AEB
1070
   342
1005
2AEB
1002
}
  0
LEADER
  5
4ACC
330
1A
100
AcDbEntity
  8
寸法線
 48
10.0
100
AcDbLeader
  3
ISO-25
 76
     3
 10
820.430569222757
 20
455.603476869129
 30
0.0
 10
846.608031987026
 20
503.333918660773
 30
0.0
 10
856.256017510055
 20
503.333918660773
 30
0.0
213
-19.50579305792633
223
0.0
233
0.0
1001
ACAD
1000
DSTYLE
1002
{
1070
     5
1000
OPEN30
1070
   147
1040
0.625
1070
    77
1070
     0
1070
    41
1040
6.0
1070
    47
1040
0.1
1070
    48
1040
0.1
1070
    73
1070
     0
1070
   140
1040
5.0
1070
   271
1070
     1
1070
   272
1070
     1
1070
   341
1005
2AEB
1070
   342
1005
2AEB
1002
}
  0
LEADER
  5
4AEF
330
1A
100
AcDbEntity
  8
寸法線
 48
10.0
100
AcDbLeader
  3
ISO-25
 73
     0
 74
     0
 76
     3
 10
769.675626624336
 20
339.750233634345
 30
0.0
 10
790.692211538201
 20
323.630977775737
 30
0.0
 10
835.303166046663
 20
323.630977775737
 30
0.0
340
4AF0
213
33.75234221426035
223
-2.5
233
0.0
1001
ACAD
1000
DSTYLE
1002
{
1070
     5
1000
OPEN30
1070
   147
1040
0.625
1070
    77
1070
     0
1070
    41
1040
6.0
1070
    47
1040
0.1
1070
    48
1040
0.1
1070
    73
1070
     0
1070
   140
1040
5.0
1070
   271
1070
     1
1070
   272
1070
     1
1070
   341
1005
2AEB
1070
   342
1005
2AEB
1002
}
  0
MTEXT
  5
4AF0
102
{ACAD_REACTORS
330
4AEF
102
}
330
1A
100
AcDbEntity
  8
寸法線
 48
10.0
100
AcDbMText
 10
759.259401025082
 20
358.99400612833
 30
0.0
 40
5.0
 41
0.0
 71
     1
 72
     1
  1
\A1;
  0
LINE
  5
4BF8
330
1A
100
AcDbEntity
  8
寸法線
 48
10.0
100
AcDbLine
 10
843.063082159597
 20
374.732358030263
 30
0.0
 11
843.063082159598
 21
349.229351104402
 31
0.0
  0
LINE
  5
4EFC
330
1A
100
AcDbEntity
  8
外形線
100
AcDbLine
 10
443.16746297118
 20
409.736874030263
 30
0.0
 11
543.16746297118
 21
409.736874030263
 31
0.0
  0
ARC
  5
4EFD
330
1A
100
AcDbEntity
  8
外形線
100
AcDbCircle
 10
488.16746297118
 20
400.361874030263
 30
0.0
 40
2.5
100
AcDbArc
 50
180.00001984784
 51
359.999982399908
  0
ARC
  5
4EFE
330
1A
100
AcDbEntity
  8
外形線
100
AcDbCircle
 10
473.16746297118
 20
400.361874030263
 30
0.0
 40
2.5
100
AcDbArc
 50
180.00001984784
 51
359.999982399908
  0
LINE
  5
4F00
330
1A
100
AcDbEntity
  8
外形線
100
AcDbLine
 10
468.16746297118
 20
400.361874030263
 30
0.0
 11
493.16746297118
 21
400.361874030263
 31
0.0
  0
LINE
  5
4F01
330
1A
100
AcDbEntity
  8
外形線
100
AcDbLine
 10
465.16746297118
 20
412.721491530262
 30
0.0
 11
465.167462971179
 21
409.736874030263
 31
0.0
  0
LINE
  5
4F02
330
1A
100
AcDbEntity
  8
外形線
100
AcDbLine
 10
468.16746297118
 20
403.002254030262
 30
0.0
 11
465.167462971179
 21
403.002254030262
 31
0.0
  0
LINE
  5
4F03
330
1A
100
AcDbEntity
  8
外形線
100
AcDbLine
 10
443.16746297118
 20
405.986874030263
 30
0.0
 11
543.16746297118
 21
405.986874030263
 31
0.0
  0
LINE
  5
4F04
330
1A
100
AcDbEntity
  8
外形線
100
AcDbLine
 10
492.07371297118
 20
421.611874030263
 30
0.0
 11
492.07371297118
 21
415.361874030263
 31
0.0
  0
LINE
  5
4F05
330
1A
100
AcDbEntity
  8
外形線
100
AcDbLine
 10
484.26121297118
 20
421.611874030263
 30
0.0
 11
484.26121297118
 21
415.361874030263
 31
0.0
  0
LINE
  5
4F06
330
1A
100
AcDbEntity
  8
外形線
100
AcDbLine
 10
484.26121297118
 20
421.611874030263
 30
0.0
 11
492.07371297118
 21
421.611874030263
 31
0.0
  0
LINE
  5
4F07
330
1A
100
AcDbEntity
  8
外形線
100
AcDbLine
 10
492.07371297118
 20
416.611874030263
 30
0.0
 11
484.26121297118
 21
416.611874030263
 31
0.0
  0
LINE
  5
4F08
330
1A
100
AcDbEntity
  8
細線
100
AcDbLine
 10
490.51121297118
 20
416.611874030263
 30
0.0
 11
490.51121297118
 21
421.611874030263
 31
0.0
  0
LINE
  5
4F09
330
1A
100
AcDbEntity
  8
細線
100
AcDbLine
 10
488.94871297118
 20
416.611874030263
 30
0.0
 11
488.94871297118
 21
421.611874030263
 31
0.0
  0
LINE
  5
4F0A
330
1A
100
AcDbEntity
  8
細線
100
AcDbLine
 10
487.38621297118
 20
416.611874030263
 30
0.0
 11
487.38621297118
 21
421.611874030263
 31
0.0
  0
LINE
  5
4F0B
330
1A
100
AcDbEntity
  8
細線
100
AcDbLine
 10
485.82371297118
 20
416.611874030263
 30
0.0
 11
485.82371297118
 21
421.611874030263
 31
0.0
  0
LINE
  5
4F0C
330
1A
100
AcDbEntity
  8
外形線
100
AcDbLine
 10
477.07371297118
 20
421.611874030263
 30
0.0
 11
477.07371297118
 21
415.361874030263
 31
0.0
  0
LINE
  5
4F0D
330
1A
100
AcDbEntity
  8
外形線
100
AcDbLine
 10
469.26121297118
 20
421.611874030263
 30
0.0
 11
469.26121297118
 21
415.361874030263
 31
0.0
  0
LINE
  5
4F0E
330
1A
100
AcDbEntity
  8
外形線
100
AcDbLine
 10
469.26121297118
 20
421.611874030263
 30
0.0
 11
477.07371297118
 21
421.611874030263
 31
0.0
  0
LINE
  5
4F0F
330
1A
100
AcDbEntity
  8
外形線
100
AcDbLine
 10
477.07371297118
 20
416.611874030263
 30
0.0
 11
469.26121297118
 21
416.611874030263
 31
0.0
  0
LINE
  5
4F10
330
1A
100
AcDbEntity
  8
細線
100
AcDbLine
 10
475.51121297118
 20
416.611874030263
 30
0.0
 11
475.51121297118
 21
421.611874030263
 31
0.0
  0
LINE
  5
4F11
330
1A
100
AcDbEntity
  8
細線
100
AcDbLine
 10
473.94871297118
 20
416.611874030263
 30
0.0
 11
473.94871297118
 21
421.611874030263
 31
0.0
  0
LINE
  5
4F12
330
1A
100
AcDbEntity
  8
細線
100
AcDbLine
 10
472.38621297118
 20
416.611874030263
 30
0.0
 11
472.38621297118
 21
421.611874030263
 31
0.0
  0
LINE
  5
4F13
330
1A
100
AcDbEntity
  8
細線
100
AcDbLine
 10
470.82371297118
 20
416.611874030263
 30
0.0
 11
470.82371297118
 21
421.611874030263
 31
0.0
  0
LINE
  5
4F14
330
1A
100
AcDbEntity
  8
中心線
  6
CONTINUOUS
100
AcDbLine
 10
488.16746297118
 20
393.064051530262
 30
0.0
 11
488.16746297118
 21
424.720966530263
 31
0.0
  0
LINE
  5
4F15
330
1A
100
AcDbEntity
  8
中心線
  6
CONTINUOUS
100
AcDbLine
 10
473.16746297118
 20
424.720966530263
 30
0.0
 11
473.16746297118
 21
393.064051530262
 31
0.0
  0
LINE
  5
4F17
330
1A
100
AcDbEntity
  8
外形線
100
AcDbLine
 10
493.16746297118
 20
415.361874030263
 30
0.0
 11
493.16746297118
 21
409.736874030263
 31
0.0
  0
LINE
  5
4F18
330
1A
100
AcDbEntity
  8
外形線
100
AcDbLine
 10
468.16746297118
 20
415.361874030263
 30
0.0
 11
468.167462971179
 21
409.736874030263
 31
0.0
  0
LINE
  5
4F19
330
1A
100
AcDbEntity
  8
外形線
100
AcDbLine
 10
468.16746297118
 20
415.361874030263
 30
0.0
 11
493.16746297118
 21
415.361874030263
 31
0.0
  0
LINE
  5
4F1A
330
1A
100
AcDbEntity
  8
外形線
100
AcDbLine
 10
468.16746297118
 20
412.721491530262
 30
0.0
 11
465.16746297118
 21
412.721491530262
 31
0.0
  0
LINE
  5
4F1C
330
1A
100
AcDbEntity
  8
外形線
100
AcDbLine
 10
493.16746297118
 20
412.721491530262
 30
0.0
 11
563.167425471179
 21
412.721491530262
 31
0.0
  0
LINE
  5
4F1E
330
1A
100
AcDbEntity
  8
外形線
100
AcDbLine
 10
493.16746297118
 20
403.002254030262
 30
0.0
 11
563.167425471179
 21
403.002254030262
 31
0.0
  0
DIMENSION
  5
4F2B
330
1A
100
AcDbEntity
  8
寸法線
 48
10.0
100
AcDbDimension
  2
*D17
 10
547.778331270368
 20
412.721491530262
 30
0.0
 11
547.778331270368
 21
435.740811038137
 31
0.0
 70
   160
  1
φ10
  3
ISO-25
100
AcDbAlignedDimension
 13
551.147258774505
 23
403.002254030262
 33
0.0
 14
547.778331270368
 24
412.721491530262
 34
0.0
 50
90.0
100
AcDbRotatedDimension
1001
ACAD
1000
DSTYLE
1002
{
1070
     5
1000
OPEN30
1070
    41
1040
6.0
1070
    47
1040
0.1
1070
    48
1040
0.1
1070
    73
1070
     0
1070
   140
1040
10.0
1070
   271
1070
     1
1070
   272
1070
     1
1070
   341
1005
2AEB
1002
}
  0
DIMENSION
  5
4F2D
330
1A
100
AcDbEntity
  8
寸法線
 48
10.0
100
AcDbDimension
  2
*D18
 10
543.167462971179
 20
365.361874030263
 30
0.0
 11
553.167444221179
 21
370.992082363596
 31
0.0
 70
    32
  3
ISO-25
100
AcDbAlignedDimension
 13
563.167425471179
 23
390.361874030263
 33
0.0
 14
543.167462971179
 24
399.736874030263
 34
0.0
100
AcDbRotatedDimension
1001
ACAD
1000
DSTYLE
1002
{
1070
     5
1000
OPEN30
1070
    41
1040
6.0
1070
    47
1040
0.1
1070
    48
1040
0.1
1070
    73
1070
     0
1070
   140
1040
10.0
1070
   271
1070
     1
1070
   272
1070
     1
1070
   341
1005
2AEB
1002
}
  0
DIMENSION
  5
4F2E
330
1A
100
AcDbEntity
  8
寸法線
 48
10.0
100
AcDbDimension
  2
*D19
 10
543.167462971179
 20
365.361874030263
 30
0.0
 11
518.167462971179
 21
370.986874030263
 31
0.0
 70
    32
  3
ISO-25
100
AcDbAlignedDimension
 13
493.16746297118
 23
400.361874030263
 33
0.0
 14
543.167462971179
 24
400.361874030263
 34
0.0
100
AcDbRotatedDimension
1001
ACAD
1000
DSTYLE
1002
{
1070
     5
1000
OPEN30
1070
    41
1040
6.0
1070
    47
1040
0.1
1070
    48
1040
0.1
1070
    73
1070
     0
1070
   140
1040
10.0
1070
   271
1070
     1
1070
   272
1070
     1
1070
   341
1005
2AEB
1002
}
  0
DIMENSION
  5
4F2F
330
1A
100
AcDbEntity
  8
寸法線
 48
10.0
100
AcDbDimension
  2
*D20
 10
410.66746297118
 20
407.861874030263
 30
0.0
 11
405.04246297118
 21
332.861874030263
 31
0.0
 70
    32
  3
ISO-25
100
AcDbAlignedDimension
 13
443.16746297118
 23
257.861874030263
 33
0.0
 14
428.934019334306
 24
407.861874030263
 34
0.0
 50
90.0
100
AcDbRotatedDimension
1001
ACAD
1000
DSTYLE
1002
{
1070
     5
1000
OPEN30
1070
    41
1040
6.0
1070
    47
1040
0.1
1070
    48
1040
0.1
1070
    73
1070
     0
1070
   140
1040
10.0
1070
   271
1070
     1
1070
   272
1070
     1
1070
   341
1005
2AEB
1002
}
  0
DIMENSION
  5
4F30
330
1A
100
AcDbEntity
  8
寸法線
 48
10.0
100
AcDbDimension
  2
*D21
 10
543.167462971179
 20
233.658997564201
 30
0.0
 11
493.167462971179
 21
239.283997564201
 31
0.0
 70
    32
  3
ISO-25
100
AcDbAlignedDimension
 13
443.16746297118
 23
257.861874030263
 33
0.0
 14
543.167462971179
 24
257.861874030263
 34
0.0
100
AcDbRotatedDimension
1001
ACAD
1000
DSTYLE
1002
{
1070
     5
1000
OPEN30
1070
    41
1040
6.0
1070
    47
1040
0.1
1070
    48
1040
0.1
1070
    73
1070
     0
1070
   140
1040
10.0
1070
   271
1070
     1
1070
   272
1070
     1
1070
   341
1005
2AEB
1002
}
  0
LINE
  5
4F44
330
1A
100
AcDbEntity
  8
外形線
100
AcDbLine
 10
443.16746297118
 20
409.736874030263
 30
0.0
 11
443.16746297118
 21
405.986874030263
 31
0.0
  0
LINE
  5
4F45
330
1A
100
AcDbEntity
  8
隠れ線
  6
DIVIDE
100
AcDbLine
 10
443.16746297118
 20
405.986874030263
 30
0.0
 11
443.16746297118
 21
257.861874030263
 31
0.0
  0
LINE
  5
4F46
330
1A
100
AcDbEntity
  8
隠れ線
  6
DIVIDE
100
AcDbLine
 10
443.16746297118
 20
257.861874030263
 30
0.0
 11
543.167462971179
 21
257.861874030263
 31
0.0
  0
LINE
  5
4F47
330
1A
100
AcDbEntity
  8
隠れ線
  6
DIVIDE
100
AcDbLine
 10
543.167462971179
 20
257.861874030263
 30
0.0
 11
543.167462971179
 21
401.092274030263
 31
0.0
  0
TEXT
  5
4FB4
330
1A
100
AcDbEntity
  8
寸法線
100
AcDbText
 10
19.678149778094
 20
90.936088669893
 30
0.0
 40
10.0
  1
接点容量 AC250V 10A 抵抗負荷
100
AcDbText
  0
LINE
  5
5178
330
1A
100
AcDbEntity
  8
外形線
 48
5.0
100
AcDbLine
 10
543.16746297118
 20
405.986874030263
 30
0.0
 11
543.16746297118
 21
409.736874030263
 31
0.0
  0
LINE
  5
53E3
330
1A
100
AcDbEntity
  8
下書線
 48
10.0
100
AcDbLine
 10
374.396754444721
 20
407.861874030263
 30
0.0
 11
308.12573383693
 21
407.861874030263
 31
0.0
  0
LINE
  5
5531
330
1A
100
AcDbEntity
  8
外形線
100
AcDbLine
 10
493.16746297118
 20
405.986874030263
 30
0.0
 11
493.16746297118
 21
400.361874030263
 31
0.0
  0
LINE
  5
5532
330
1A
100
AcDbEntity
  8
外形線
100
AcDbLine
 10
468.16746297118
 20
405.986874030263
 30
0.0
 11
468.16746297118
 21
400.361874030263
 31
0.0
  0
LINE
  5
570A
330
1A
100
AcDbEntity
  8
中心線
  6
CENTER
 48
10.0
100
AcDbLine
 10
688.085374717344
 20
472.861874030263
 30
0.0
 11
708.087862159597
 21
472.861874030263
 31
0.0
  0
LINE
  5
570B
330
1A
100
AcDbEntity
  8
外形線
100
AcDbLine
 10
693.087862159597
 20
330.861874030263
 30
0.0
 11
693.087862159597
 21
484.861874030263
 31
0.0
  0
LINE
  5
570C
330
1A
100
AcDbEntity
  8
外形線
100
AcDbLine
 10
723.434356098401
 20
382.861874030263
 30
0.0
 11
706.087862159597
 21
382.861874030263
 31
0.0
  0
ARC
  5
570D
330
1A
100
AcDbEntity
  8
外形線
100
AcDbCircle
 10
706.087862159597
 20
379.861874030263
 30
0.0
 40
3.0
100
AcDbArc
 50
90.0
 51
180.0
  0
LINE
  5
570E
330
1A
100
AcDbEntity
  8
外形線
100
AcDbLine
 10
702.087862159597
 20
330.361874030263
 30
0.0
 11
693.587862159597
 21
330.361874030263
 31
0.0
  0
LINE
  5
570F
330
1A
100
AcDbEntity
  8
外形線
100
AcDbLine
 10
702.087862159597
 20
330.361874030263
 30
0.0
 11
703.087862159597
 21
331.361874030263
 31
0.0
  0
LINE
  5
5710
330
1A
100
AcDbEntity
  8
外形線
100
AcDbLine
 10
693.587862159597
 20
330.361874030263
 30
0.0
 11
693.087862159597
 21
330.861874030263
 31
0.0
  0
LINE
  5
5711
330
1A
100
AcDbEntity
  8
外形線
100
AcDbLine
 10
693.587862159597
 20
485.361874030263
 30
0.0
 11
693.087862159597
 21
484.861874030263
 31
0.0
  0
LINE
  5
5712
330
1A
100
AcDbEntity
  8
外形線
100
AcDbLine
 10
702.087862159597
 20
485.361874030263
 30
0.0
 11
703.087862159597
 21
484.361874030263
 31
0.0
  0
LINE
  5
5713
330
1A
100
AcDbEntity
  8
外形線
100
AcDbLine
 10
702.087862159597
 20
485.361874030263
 30
0.0
 11
693.587862159597
 21
485.361874030263
 31
0.0
  0
ARC
  5
5714
330
1A
100
AcDbEntity
  8
外形線
100
AcDbCircle
 10
706.087862159597
 20
435.861874030263
 30
0.0
 40
3.0
100
AcDbArc
 50
180.0
 51
270.0
  0
LINE
  5
5715
330
1A
100
AcDbEntity
  8
外形線
100
AcDbLine
 10
703.087862159597
 20
331.361874030263
 30
0.0
 11
703.087862159597
 21
484.361874030263
 31
0.0
  0
LINE
  5
5716
330
1A
100
AcDbEntity
  8
外形線
100
AcDbLine
 10
780.587862159597
 20
458.861874030263
 30
0.0
 11
776.087862159597
 21
458.861874030263
 31
0.0
  0
LINE
  5
5717
330
1A
100
AcDbEntity
  8
外形線
100
AcDbLine
 10
776.087862159597
 20
458.861874030263
 30
0.0
 11
773.087862159597
 21
453.861874030263
 31
0.0
  0
LINE
  5
5718
330
1A
100
AcDbEntity
  8
外形線
100
AcDbLine
 10
773.087862159597
 20
453.861874030263
 30
0.0
 11
738.632057686626
 21
451.947662670653
 31
0.0
  0
LINE
  5
5719
330
1A
100
AcDbEntity
  8
外形線
100
AcDbLine
 10
780.587862159597
 20
356.861874030263
 30
0.0
 11
775.087862159598
 21
356.861874030263
 31
0.0
  0
LINE
  5
571A
330
1A
100
AcDbEntity
  8
外形線
100
AcDbLine
 10
747.969555879546
 20
341.861874030263
 30
0.0
 11
772.216755975815
 21
341.861874030263
 31
0.0
  0
LINE
  5
571B
330
1A
100
AcDbEntity
  8
外形線
100
AcDbLine
 10
775.087862159598
 20
356.861874030263
 30
0.0
 11
774.212326291528
 21
343.728836009215
 31
0.0
  0
LINE
  5
571C
330
1A
100
AcDbEntity
  8
外形線
100
AcDbLine
 10
744.825819448866
 20
362.546797372175
 30
0.0
 11
745.973268066384
 21
343.740075150882
 31
0.0
  0
LINE
  5
571D
330
1A
100
AcDbEntity
  8
外形線
100
AcDbLine
 10
743.883145561907
 20
363.48435828569
 30
0.0
 11
738.632057686626
 21
363.776085389872
 31
0.0
  0
LINE
  5
571E
330
1A
100
AcDbEntity
  8
中心線
  6
CENTER
 48
10.0
100
AcDbLine
 10
760.09315592768
 20
325.960683093624
 30
0.0
 11
760.09315592768
 21
371.584096252485
 31
0.0
  0
LINE
  5
571F
330
1A
100
AcDbEntity
  8
外形線
100
AcDbLine
 10
736.2620010364
 20
450.554260585201
 30
0.0
 11
725.970822807494
 21
434.259895056099
 31
0.0
  0
LINE
  5
5720
330
1A
100
AcDbEntity
  8
外形線
100
AcDbLine
 10
723.434356098401
 20
432.861874030263
 30
0.0
 11
706.087862159597
 21
432.861874030263
 31
0.0
  0
LINE
  5
5721
330
1A
100
AcDbEntity
  8
外形線
100
AcDbLine
 10
736.2620010364
 20
365.169487475325
 30
0.0
 11
725.970822807494
 21
381.463853004427
 31
0.0
  0
ARC
  5
5722
330
1A
100
AcDbEntity
  8
外形線
100
AcDbCircle
 10
723.434356098401
 20
435.861874030263
 30
0.0
 40
3.0
100
AcDbArc
 50
270.0
 51
327.724355685421
  0
ARC
  5
5723
330
1A
100
AcDbEntity
  8
外形線
100
AcDbCircle
 10
723.434356098401
 20
379.861874030263
 30
0.0
 40
3.0
100
AcDbArc
 50
32.275644314579
 51
90.0
  0
ARC
  5
5724
330
1A
100
AcDbEntity
  8
外形線
100
AcDbCircle
 10
738.798467745493
 20
448.952281611037
 30
0.0
 40
3.0
100
AcDbArc
 50
93.179830119866
 51
147.724355685421
  0
ARC
  5
5725
330
1A
100
AcDbEntity
  8
外形線
100
AcDbCircle
 10
738.798467745493
 20
366.771466449488
 30
0.0
 40
3.0
100
AcDbArc
 50
212.275644314579
 51
266.820169880134
  0
ARC
  5
5726
330
1A
100
AcDbEntity
  8
外形線
100
AcDbCircle
 10
743.827675542285
 20
362.485897932484
 30
0.0
 40
1.0
100
AcDbArc
 50
3.491441283454
 51
86.820169880132
  0
ARC
  5
5727
330
1A
100
AcDbEntity
  8
外形線
100
AcDbCircle
 10
772.216755975815
 20
343.861874030263
 30
0.0
 40
2.0
100
AcDbArc
 50
270.0
 51
356.185925165712
  0
ARC
  5
5728
330
1A
100
AcDbEntity
  8
外形線
100
AcDbCircle
 10
747.969555879546
 20
343.861874030263
 30
0.0
 40
2.0
100
AcDbArc
 50
183.491441283454
 51
270.0
  0
LINE
  5
5729
330
1A
100
AcDbEntity
  8
外形線
100
AcDbLine
 10
780.587862159597
 20
458.861874030263
 30
0.0
 11
781.087862159597
 21
458.361874030263
 31
0.0
  0
LINE
  5
572A
330
1A
100
AcDbEntity
  8
外形線
100
AcDbLine
 10
780.587862159597
 20
356.861874030263
 30
0.0
 11
781.087862159597
 21
357.361874030263
 31
0.0
  0
LINE
  5
572B
330
1A
100
AcDbEntity
  8
細線
 62
     6
 48
10.0
100
AcDbLine
 10
776.087862159597
 20
458.861874030263
 30
0.0
 11
776.087862159597
 21
356.861874030263
 31
0.0
  0
LINE
  5
572C
330
1A
100
AcDbEntity
  8
細線
 62
     6
 48
10.0
100
AcDbLine
 10
773.087862159597
 20
453.861874030263
 30
0.0
 11
773.087862159597
 21
365.714706087703
 31
0.0
  0
LINE
  5
572D
330
1A
100
AcDbEntity
  8
細線
 62
     6
 48
10.0
100
AcDbLine
 10
737.689884614579
 20
448.787496092393
 30
0.0
 11
737.689884614579
 21
366.811172583444
 31
0.0
  0
LINE
  5
572E
330
1A
100
AcDbEntity
  8
細線
 62
     6
 48
10.0
100
AcDbLine
 10
725.307005064552
 20
431.000179776522
 30
0.0
 11
725.307005064552
 21
384.211807267691
 31
0.0
  0
LINE
  5
572F
330
1A
100
AcDbEntity
  8
細線
100
AcDbLine
 10
798.795016159598
 20
438.706724030263
 30
0.0
 11
798.795016159598
 21
450.130674030262
 31
0.0
  0
LINE
  5
5730
330
1A
100
AcDbEntity
  8
外形線
100
AcDbLine
 10
833.352632159598
 20
407.861874030263
 30
0.0
 11
833.352632159598
 21
450.350278030262
 31
0.0
  0
LINE
  5
5731
330
1A
100
AcDbEntity
  8
細線
100
AcDbLine
 10
802.507784159597
 20
456.413876030262
 30
0.0
 11
802.507784159597
 21
359.309872030262
 31
0.0
  0
LINE
  5
5732
330
1A
100
AcDbEntity
  8
外形線
100
AcDbLine
 10
783.087008159597
 20
356.861874030263
 30
0.0
 11
783.087008159597
 21
458.861874030263
 31
0.0
  0
LINE
  5
5733
330
1A
100
AcDbEntity
  8
外形線
100
AcDbLine
 10
781.087862159597
 20
458.861874030263
 30
0.0
 11
781.087862159597
 21
356.861874030263
 31
0.0
  0
ARC
  5
5734
330
1A
100
AcDbEntity
  8
細線
100
AcDbCircle
 10
773.51551992768
 20
350.739958030263
 30
0.0
 40
18.322924
100
AcDbArc
 50
247.068453993571
 51
267.322397459894
  0
LINE
  5
5735
330
1A
100
AcDbEntity
  8
外形線
100
AcDbLine
 10
747.52674992768
 20
332.437040030263
 30
0.0
 11
772.659563927681
 21
332.437040030263
 31
0.0
  0
LINE
  5
5736
330
1A
100
AcDbEntity
  8
外形線
100
AcDbLine
 10
746.098771927681
 20
337.577848030263
 30
0.0
 11
774.087663927681
 21
337.577848030263
 31
0.0
  0
LINE
  5
5737
330
1A
100
AcDbEntity
  8
細線
100
AcDbLine
 10
767.233171927681
 20
341.861844030262
 30
0.0
 11
767.233171927681
 21
337.577848030263
 31
0.0
  0
LINE
  5
5738
330
1A
100
AcDbEntity
  8
外形線
100
AcDbLine
 10
769.51796192768
 20
337.577848030263
 30
0.0
 11
769.51796192768
 21
341.861844030262
 31
0.0
  0
LINE
  5
5739
330
1A
100
AcDbEntity
  8
細線
100
AcDbLine
 10
766.376359927681
 20
333.865080030262
 30
0.0
 11
766.376359927681
 21
337.577848030263
 31
0.0
  0
LINE
  5
573A
330
1A
100
AcDbEntity
  8
細線
100
AcDbLine
 10
752.953141927681
 20
341.861844030262
 30
0.0
 11
752.953141927681
 21
337.577848030263
 31
0.0
  0
LINE
  5
573B
330
1A
100
AcDbEntity
  8
外形線
100
AcDbLine
 10
750.668351927681
 20
337.577848030263
 30
0.0
 11
750.668351927681
 21
341.861844030262
 31
0.0
  0
ARC
  5
573C
330
1A
100
AcDbEntity
  8
細線
100
AcDbCircle
 10
746.67079392768
 20
350.739958030263
 30
0.0
 40
18.322924
100
AcDbArc
 50
272.67766208363
 51
292.93154825417
  0
LINE
  5
573D
330
1A
100
AcDbEntity
  8
外形線
100
AcDbLine
 10
746.098771927681
 20
333.865080030262
 30
0.0
 11
747.52674992768
 21
332.437040030263
 31
0.0
  0
LINE
  5
573E
330
1A
100
AcDbEntity
  8
細線
100
AcDbLine
 10
753.809953927681
 20
333.865080030262
 30
0.0
 11
753.809953927681
 21
337.577848030263
 31
0.0
  0
LINE
  5
573F
330
1A
100
AcDbEntity
  8
外形線
100
AcDbLine
 10
746.098771927681
 20
337.577848030263
 30
0.0
 11
746.098771927681
 21
333.865080030262
 31
0.0
  0
ARC
  5
5740
330
1A
100
AcDbEntity
  8
細線
100
AcDbCircle
 10
760.09315592768
 20
346.973722030263
 30
0.0
 40
14.53669
100
AcDbArc
 50
244.390793033803
 51
295.609209213938
  0
LINE
  5
5741
330
1A
100
AcDbEntity
  8
外形線
100
AcDbLine
 10
774.087663927681
 20
333.865080030262
 30
0.0
 11
772.659563927681
 21
332.437040030263
 31
0.0
  0
LINE
  5
5742
330
1A
100
AcDbEntity
  8
外形線
100
AcDbLine
 10
774.087663927681
 20
337.577848030263
 30
0.0
 11
774.087663927681
 21
333.865080030262
 31
0.0
  0
ARC
  5
5743
330
1A
100
AcDbEntity
  8
外形線
100
AcDbCircle
 10
798.468966159597
 20
434.712460030263
 30
0.0
 40
4.015794000000001
100
AcDbArc
 50
274.656944786914
 51
84.065438721313
  0
ARC
  5
5744
330
1A
100
AcDbEntity
  8
外形線
100
AcDbCircle
 10
797.507906159598
 20
407.279478030262
 30
0.0
 40
5.033766
100
AcDbArc
 50
6.644133183896
 51
75.184725088441
  0
ARC
  5
5745
330
1A
100
AcDbEntity
  8
外形線
100
AcDbCircle
 10
797.507906159598
 20
408.444394030263
 30
0.0
 40
5.033766
100
AcDbArc
 50
284.815257311476
 51
353.35584921602
  0
ARC
  5
5746
330
1A
100
AcDbEntity
  8
外形線
100
AcDbCircle
 10
798.468966159597
 20
381.011412030262
 30
0.0
 40
4.015794000000001
100
AcDbArc
 50
275.934583374273
 51
85.343077308665
  0
LINE
  5
5747
330
1A
100
AcDbEntity
  8
外形線
100
AcDbLine
 10
802.507784159597
 20
359.309872030262
 30
0.0
 11
798.795016159598
 21
356.861874030263
 31
0.0
  0
LINE
  5
5748
330
1A
100
AcDbEntity
  8
外形線
100
AcDbLine
 10
800.835116159597
 20
365.593076030263
 30
0.0
 11
783.087008159597
 21
365.593076030263
 31
0.0
  0
LINE
  5
5749
330
1A
100
AcDbEntity
  8
外形線
100
AcDbLine
 10
800.835116159597
 20
362.165952030262
 30
0.0
 11
783.087008159597
 21
362.165952030262
 31
0.0
  0
LINE
  5
574A
330
1A
100
AcDbEntity
  8
細線
100
AcDbLine
 10
798.795016159598
 20
403.577940030263
 30
0.0
 11
798.795016159598
 21
385.013852030262
 31
0.0
  0
LINE
  5
574B
330
1A
100
AcDbEntity
  8
細線
100
AcDbLine
 10
798.795016159598
 20
377.017148030262
 30
0.0
 11
798.795016159598
 21
365.593076030263
 31
0.0
  0
LINE
  5
574C
330
1A
100
AcDbEntity
  8
細線
100
AcDbLine
 10
798.795016159598
 20
362.165952030262
 30
0.0
 11
798.795016159598
 21
356.861874030263
 31
0.0
  0
LINE
  5
574D
330
1A
100
AcDbEntity
  8
外形線
100
AcDbLine
 10
781.087862159597
 20
356.861874030263
 30
0.0
 11
798.795016159598
 21
356.861874030263
 31
0.0
  0
LINE
  5
574E
330
1A
100
AcDbEntity
  8
外形線
100
AcDbLine
 10
783.087008159597
 20
377.017148030262
 30
0.0
 11
798.884126159598
 21
377.017148030262
 31
0.0
  0
LINE
  5
574F
330
1A
100
AcDbEntity
  8
外形線
100
AcDbLine
 10
783.087008159597
 20
385.013852030262
 30
0.0
 11
798.795016159598
 21
385.013852030262
 31
0.0
  0
LINE
  5
5750
330
1A
100
AcDbEntity
  8
細線
100
AcDbLine
 10
798.795016159598
 20
412.145932030262
 30
0.0
 11
798.795016159598
 21
430.709898030262
 31
0.0
  0
LINE
  5
5751
330
1A
100
AcDbEntity
  8
外形線
100
AcDbLine
 10
783.087008159597
 20
412.145932030262
 30
0.0
 11
798.795016159598
 21
412.145932030262
 31
0.0
  0
LINE
  5
5752
330
1A
100
AcDbEntity
  8
外形線
100
AcDbLine
 10
783.087008159597
 20
403.577940030263
 30
0.0
 11
798.795016159598
 21
403.577940030263
 31
0.0
  0
LINE
  5
5753
330
1A
100
AcDbEntity
  8
外形線
100
AcDbLine
 10
783.087008159597
 20
430.709898030262
 30
0.0
 11
798.795016159598
 21
430.709898030262
 31
0.0
  0
LINE
  5
5754
330
1A
100
AcDbEntity
  8
外形線
100
AcDbLine
 10
783.087008159597
 20
438.706724030263
 30
0.0
 11
798.884126159598
 21
438.706724030263
 31
0.0
  0
LINE
  5
5755
330
1A
100
AcDbEntity
  8
外形線
100
AcDbLine
 10
843.063082159598
 20
384.442686030262
 30
0.0
 11
843.063082159598
 21
401.864316030263
 31
0.0
  0
LINE
  5
5756
330
1A
100
AcDbEntity
  8
外形線
100
AcDbLine
 10
833.352632159598
 20
407.861874030263
 30
0.0
 11
833.352632159598
 21
365.373594030263
 31
0.0
  0
ARC
  5
5757
330
1A
100
AcDbEntity
  8
外形線
100
AcDbCircle
 10
828.497408159597
 20
365.373594030263
 30
0.0
 40
4.8552
100
AcDbArc
 50
272.650733067262
 51
359.999982399895
  0
ARC
  5
5758
330
1A
100
AcDbEntity
  8
外形線
100
AcDbCircle
 10
800.781100159598
 20
363.879454030262
 30
0.0
 40
1.714446
100
AcDbArc
 50
271.804703586974
 51
88.195318508604
  0
LINE
  5
5759
330
1A
100
AcDbEntity
  8
外形線
100
AcDbLine
 10
802.507784159597
 20
359.309872030262
 30
0.0
 11
828.722018159597
 21
360.523558030262
 31
0.0
  0
ARC
  5
575A
330
1A
100
AcDbEntity
  8
外形線
100
AcDbCircle
 10
841.200900159598
 20
376.593808030262
 30
0.0
 40
1.86215
100
AcDbArc
 50
268.482178628786
 51
83.815801009984
  0
ARC
  5
575B
330
1A
100
AcDbEntity
  8
外形線
100
AcDbCircle
 10
841.063814159597
 20
384.442686030262
 30
0.0
 40
1.9992
100
AcDbArc
 50
270.0
 51
359.999982399894
  0
ARC
  5
575C
330
1A
100
AcDbEntity
  8
外形線
100
AcDbCircle
 10
835.353122159597
 20
380.444364030262
 30
0.0
 40
2.000724
100
AcDbArc
 50
87.757023395436
 51
272.242959004483
  0
LINE
  5
575D
330
1A
100
AcDbEntity
  8
外形線
100
AcDbLine
 10
835.431368159597
 20
378.445126030262
 30
0.0
 11
841.401460159597
 21
378.445126030262
 31
0.0
  0
LINE
  5
575E
330
1A
100
AcDbEntity
  8
外形線
100
AcDbLine
 10
833.352632159598
 20
374.732358030263
 30
0.0
 11
841.151582159597
 21
374.732358030263
 31
0.0
  0
LINE
  5
575F
330
1A
100
AcDbEntity
  8
外形線
100
AcDbLine
 10
835.431430159598
 20
382.443540030263
 30
0.0
 11
841.063814159597
 21
382.443540030263
 31
0.0
  0
LINE
  5
5760
330
1A
100
AcDbEntity
  8
外形線
100
AcDbLine
 10
843.063082159598
 20
431.281064030262
 30
0.0
 11
843.063082159598
 21
413.859434030262
 31
0.0
  0
ARC
  5
5761
330
1A
100
AcDbEntity
  8
外形線
100
AcDbCircle
 10
841.063814159597
 20
413.859434030262
 30
0.0
 40
1.9992
100
AcDbArc
 50
270.0
 51
359.999982399907
  0
ARC
  5
5762
330
1A
100
AcDbEntity
  8
外形線
100
AcDbCircle
 10
835.507052159598
 20
409.714780030263
 30
0.0
 40
2.15556
100
AcDbArc
 50
95.512637406102
 51
178.089033713734
  0
LINE
  5
5763
330
1A
100
AcDbEntity
  8
外形線
100
AcDbLine
 10
835.300020159598
 20
411.860288030262
 30
0.0
 11
841.063814159597
 21
411.860288030262
 31
0.0
  0
LINE
  5
5764
330
1A
100
AcDbEntity
  8
外形線
100
AcDbLine
 10
835.300020159598
 20
403.863584030263
 30
0.0
 11
841.063814159597
 21
403.863584030263
 31
0.0
  0
ARC
  5
5765
330
1A
100
AcDbEntity
  8
外形線
100
AcDbCircle
 10
841.063814159597
 20
401.864316030263
 30
0.0
 40
1.9992
100
AcDbArc
 50
0.0
 51
89.999981276022
  0
ARC
  5
5766
330
1A
100
AcDbEntity
  8
外形線
100
AcDbCircle
 10
835.507052159598
 20
406.009092030263
 30
0.0
 40
2.15556
100
AcDbArc
 50
181.910948686156
 51
264.487402289584
  0
LINE
  5
5767
330
1A
100
AcDbEntity
  8
外形線
100
AcDbLine
 10
833.352632159598
 20
440.991514030262
 30
0.0
 11
841.151582159597
 21
440.991514030262
 31
0.0
  0
ARC
  5
5768
330
1A
100
AcDbEntity
  8
外形線
100
AcDbCircle
 10
841.063814159597
 20
431.281064030262
 30
0.0
 40
1.9992
100
AcDbArc
 50
0.0
 51
89.999981276022
  0
ARC
  5
5769
330
1A
100
AcDbEntity
  8
外形線
100
AcDbCircle
 10
835.351840159597
 20
435.279478030262
 30
0.0
 40
2.000726
100
AcDbArc
 50
87.722187561485
 51
272.277852134191
  0
LINE
  5
576A
330
1A
100
AcDbEntity
  8
外形線
100
AcDbLine
 10
835.431368159597
 20
433.280332030263
 30
0.0
 11
841.063814159597
 21
433.280332030263
 31
0.0
  0
LINE
  5
576B
330
1A
100
AcDbEntity
  8
外形線
100
AcDbLine
 10
835.431368159597
 20
437.278622030262
 30
0.0
 11
841.401460159597
 21
437.278622030262
 31
0.0
  0
ARC
  5
576C
330
1A
100
AcDbEntity
  8
外形線
100
AcDbCircle
 10
841.200900159598
 20
439.130064030262
 30
0.0
 40
1.86215
100
AcDbArc
 50
276.184221085629
 51
91.517843466791
  0
LINE
  5
576D
330
1A
100
AcDbEntity
  8
外形線
100
AcDbLine
 10
800.835116159597
 20
450.130674030262
 30
0.0
 11
783.087008159597
 21
450.130674030262
 31
0.0
  0
LINE
  5
576E
330
1A
100
AcDbEntity
  8
外形線
100
AcDbLine
 10
800.835116159597
 20
453.557920030263
 30
0.0
 11
783.087008159597
 21
453.557920030263
 31
0.0
  0
LINE
  5
576F
330
1A
100
AcDbEntity
  8
外形線
100
AcDbLine
 10
798.795016159598
 20
458.861874030263
 30
0.0
 11
802.507784159597
 21
456.413876030262
 31
0.0
  0
LINE
  5
5770
330
1A
100
AcDbEntity
  8
外形線
100
AcDbLine
 10
781.087862159597
 20
458.861874030263
 30
0.0
 11
798.795016159598
 21
458.861874030263
 31
0.0
  0
LINE
  5
5771
330
1A
100
AcDbEntity
  8
細線
100
AcDbLine
 10
798.795016159598
 20
453.557920030263
 30
0.0
 11
798.795016159598
 21
458.861874030263
 31
0.0
  0
ARC
  5
5772
330
1A
100
AcDbEntity
  8
外形線
100
AcDbCircle
 10
828.497408159597
 20
450.350278030262
 30
0.0
 40
4.8552
100
AcDbArc
 50
0.0
 51
87.349306628423
  0
ARC
  5
5773
330
1A
100
AcDbEntity
  8
外形線
100
AcDbCircle
 10
800.781100159598
 20
451.844296030263
 30
0.0
 40
1.714446
100
AcDbArc
 50
271.804703586974
 51
88.195318508604
  0
LINE
  5
5774
330
1A
100
AcDbEntity
  8
外形線
100
AcDbLine
 10
802.507784159597
 20
456.413876030262
 30
0.0
 11
828.722018159597
 21
455.200254030262
 31
0.0
  0
ARC
  5
5775
330
1A
100
AcDbEntity
  8
細線
100
AcDbCircle
 10
760.708635927681
 20
331.094876030261
 30
0.0
 40
36.76653200000171
100
AcDbArc
 50
70.324160459539
 51
115.211785839399
  0
LINE
  5
5776
330
1A
100
AcDbEntity
  8
細線
 62
     6
 48
10.0
100
AcDbLine
 10
773.087862159597
 20
365.714706087703
 30
0.0
 11
776.087862159597
 21
356.861874030263
 31
0.0
  0
LINE
  5
5777
330
1A
100
AcDbEntity
  8
中心線
  6
CENTER
 48
10.0
100
AcDbLine
 10
688.085374717344
 20
342.861874030263
 30
0.0
 11
708.087862159597
 21
342.861874030263
 31
0.0
  0
MTEXT
  5
5872
330
1A
100
AcDbEntity
  8
寸法線
 48
10.0
100
AcDbMText
 10
752.563241636021
 20
541.458255095523
 30
0.0
 40
10.0
 41
212.510156041579
 71
     1
 72
     5
  1
塗装色：10YR7.5/14
  0
LINE
  5
5DCC
330
1A
100
AcDbEntity
  8
細線
100
AcDbLine
 10
271.595045972238
 20
308.962606342115
 30
0.0
 11
279.537693672491
 21
316.905254042368
 31
0.0
  0
LINE
  5
5DCD
330
1A
100
AcDbEntity
  8
細線
100
AcDbLine
 10
268.282917391756
 20
310.953778620533
 30
0.0
 11
284.672146101491
 21
327.343007330265
 31
0.0
  0
LINE
  5
5DCE
330
1A
100
AcDbEntity
  8
細線
100
AcDbLine
 10
264.970788811276
 20
312.94495089895
 30
0.0
 11
288.536608686381
 21
336.510770774055
 31
0.0
  0
LINE
  5
5DCF
330
1A
100
AcDbEntity
  8
細線
100
AcDbLine
 10
261.658660230793
 20
314.936123177365
 30
0.0
 11
288.540241704381
 21
341.817704650953
 31
0.0
  0
LINE
  5
5DD0
330
1A
100
AcDbEntity
  8
細線
100
AcDbLine
 10
258.346531650311
 20
316.927295455783
 30
0.0
 11
284.652106372928
 21
343.2328701784
 31
0.0
  0
LINE
  5
5DD1
330
1A
100
AcDbEntity
  8
細線
100
AcDbLine
 10
255.034403069828
 20
318.9184677342
 30
0.0
 11
280.763971041476
 21
344.648035705848
 31
0.0
  0
LINE
  5
5DD2
330
1A
100
AcDbEntity
  8
細線
100
AcDbLine
 10
255.078569587208
 20
324.26593511048
 30
0.0
 11
279.834612872801
 21
349.021978396073
 31
0.0
  0
LINE
  5
5DD3
330
1A
100
AcDbEntity
  8
細線
100
AcDbLine
 10
260.754280579573
 20
335.244946961743
 30
0.0
 11
282.254532879909
 21
356.745199262078
 31
0.0
  0
LINE
  5
5DD4
330
1A
100
AcDbEntity
  8
細線
100
AcDbLine
 10
264.899117787848
 20
344.693085028915
 30
0.0
 11
281.368803561553
 21
361.162770802623
 31
0.0
  0
LINE
  5
5DD5
330
1A
100
AcDbEntity
  8
細線
100
AcDbLine
 10
267.922633839521
 20
353.019901939488
 30
0.0
 11
277.186222042863
 21
362.283490142833
 31
0.0
  0
LINE
  5
5DD6
330
1A
100
AcDbEntity
  8
細線
100
AcDbLine
 10
270.421900025081
 20
360.822468983948
 30
0.0
 11
273.003640524176
 21
363.404209483043
 31
0.0
  0
LINE
  5
5DD7
330
1A
100
AcDbEntity
  8
外形線
100
AcDbLine
 10
117.982710148093
 20
405.986874030263
 30
0.0
 11
117.982710148093
 21
409.736874030263
 31
0.0
  0
LINE
  5
5DD8
330
1A
100
AcDbEntity
  8
外形線
100
AcDbLine
 10
88.285720148093
 20
421.681874030263
 30
0.0
 11
96.165720148093
 21
421.681874030263
 31
0.0
  0
LINE
  5
5DD9
330
1A
100
AcDbEntity
  8
外形線
100
AcDbLine
 10
96.470720148093
 20
421.461874030263
 30
0.0
 11
96.470720148093
 21
416.681874030263
 31
0.0
  0
LINE
  5
5DDA
330
1A
100
AcDbEntity
  8
外形線
100
AcDbLine
 10
96.470720148093
 20
421.461874030263
 30
0.0
 11
96.165720148093
 21
421.681874030263
 31
0.0
  0
LINE
  5
5DDB
330
1A
100
AcDbEntity
  8
細線
100
AcDbLine
 10
88.405220148093
 20
421.321874030263
 30
0.0
 11
88.405220148093
 21
417.241874030263
 31
0.0
  0
LINE
  5
5DDC
330
1A
100
AcDbEntity
  8
細線
100
AcDbLine
 10
96.046220148093
 20
421.321874030263
 30
0.0
 11
96.046220148093
 21
417.241874030263
 31
0.0
  0
LINE
  5
5DDD
330
1A
100
AcDbEntity
  8
細線
100
AcDbLine
 10
95.197220148093
 20
421.321874030263
 30
0.0
 11
95.197220148093
 21
417.241874030263
 31
0.0
  0
LINE
  5
5DDE
330
1A
100
AcDbEntity
  8
細線
100
AcDbLine
 10
94.348220148093
 20
421.321874030263
 30
0.0
 11
94.348220148093
 21
417.241874030263
 31
0.0
  0
LINE
  5
5DDF
330
1A
100
AcDbEntity
  8
細線
100
AcDbLine
 10
93.499220148093
 20
421.321874030263
 30
0.0
 11
93.499220148093
 21
417.241874030263
 31
0.0
  0
LINE
  5
5DE0
330
1A
100
AcDbEntity
  8
細線
100
AcDbLine
 10
89.254220148093
 20
421.321874030263
 30
0.0
 11
89.254220148093
 21
417.241874030263
 31
0.0
  0
LINE
  5
5DE1
330
1A
100
AcDbEntity
  8
細線
100
AcDbLine
 10
90.103220148093
 20
421.321874030263
 30
0.0
 11
90.103220148093
 21
417.241874030263
 31
0.0
  0
LINE
  5
5DE2
330
1A
100
AcDbEntity
  8
細線
100
AcDbLine
 10
91.801220148093
 20
421.321874030263
 30
0.0
 11
91.801220148093
 21
417.241874030263
 31
0.0
  0
LINE
  5
5DE3
330
1A
100
AcDbEntity
  8
細線
100
AcDbLine
 10
90.952220148093
 20
421.321874030263
 30
0.0
 11
90.952220148093
 21
417.241874030263
 31
0.0
  0
LINE
  5
5DE4
330
1A
100
AcDbEntity
  8
細線
100
AcDbLine
 10
92.650220148093
 20
421.321874030263
 30
0.0
 11
92.650220148093
 21
417.241874030263
 31
0.0
  0
LINE
  5
5DE5
330
1A
100
AcDbEntity
  8
外形線
100
AcDbLine
 10
87.980720148093
 20
421.461874030263
 30
0.0
 11
88.285720148093
 21
421.681874030263
 31
0.0
  0
LINE
  5
5DE6
330
1A
100
AcDbEntity
  8
外形線
100
AcDbLine
 10
87.980720148093
 20
421.461874030263
 30
0.0
 11
87.980720148093
 21
416.681874030263
 31
0.0
  0
LINE
  5
5DE7
330
1A
100
AcDbEntity
  8
外形線
100
AcDbLine
 10
96.575720148093
 20
416.681874030263
 30
0.0
 11
87.875720148093
 21
416.681874030263
 31
0.0
  0
LINE
  5
5DE8
330
1A
100
AcDbEntity
  8
外形線
100
AcDbLine
 10
87.875720148093
 20
416.681874030263
 30
0.0
 11
87.875720148093
 21
415.361874030263
 31
0.0
  0
LINE
  5
5DE9
330
1A
100
AcDbEntity
  8
外形線
100
AcDbLine
 10
96.575720148093
 20
416.681874030263
 30
0.0
 11
96.575720148093
 21
415.361874030263
 31
0.0
  0
LINE
  5
5DEA
330
1A
100
AcDbEntity
  8
外形線
100
AcDbLine
 10
94.665720148093
 20
405.986874030263
 30
0.0
 11
94.665720148093
 21
409.736874030263
 31
0.0
  0
LINE
  5
5DEB
330
1A
100
AcDbEntity
  8
外形線
100
AcDbLine
 10
89.785720148093
 20
405.986874030263
 30
0.0
 11
89.785720148093
 21
409.736874030263
 31
0.0
  0
LINE
  5
5DEC
330
1A
100
AcDbEntity
  8
細線
100
AcDbLine
 10
94.325720148093
 20
405.986874030263
 30
0.0
 11
94.325720148093
 21
409.736874030263
 31
0.0
  0
LINE
  5
5DED
330
1A
100
AcDbEntity
  8
細線
100
AcDbLine
 10
90.125720148093
 20
405.986874030263
 30
0.0
 11
90.125720148093
 21
409.736874030263
 31
0.0
  0
LINE
  5
5DEE
330
1A
100
AcDbEntity
  8
外形線
100
AcDbLine
 10
132.225720148093
 20
415.361874030263
 30
0.0
 11
132.225720148093
 21
409.736874030263
 31
0.0
  0
LINE
  5
5DEF
330
1A
100
AcDbEntity
  8
外形線
100
AcDbLine
 10
132.225720148093
 20
400.361874030263
 30
0.0
 11
132.225720148093
 21
405.986874030263
 31
0.0
  0
LINE
  5
5DF0
330
1A
100
AcDbEntity
  8
外形線
100
AcDbLine
 10
102.450255148093
 20
409.736874030263
 30
0.0
 11
87.225720148093
 21
409.736874030263
 31
0.0
  0
LINE
  5
5DF1
330
1A
100
AcDbEntity
  8
外形線
100
AcDbLine
 10
102.450255148093
 20
405.986874030263
 30
0.0
 11
87.225720148093
 21
405.986874030263
 31
0.0
  0
ARC
  5
5DF2
330
1A
100
AcDbEntity
  8
外形線
100
AcDbCircle
 10
127.225720148093
 20
400.361874030263
 30
0.0
 40
2.5
100
AcDbArc
 50
179.999981276021
 51
0.0
  0
ARC
  5
5DF3
330
1A
100
AcDbEntity
  8
外形線
100
AcDbCircle
 10
127.225720148093
 20
415.361874030263
 30
0.0
 40
2.5
100
AcDbArc
 50
0.0
 51
180.000020971714
  0
CIRCLE
  5
5DF4
330
1A
100
AcDbEntity
  8
外形線
100
AcDbCircle
 10
107.085377648093
 20
407.861874030263
 30
0.0
 40
5.0
  0
LINE
  5
5DF5
330
1A
100
AcDbEntity
  8
外形線
100
AcDbLine
 10
87.225720148093
 20
409.736874030263
 30
0.0
 11
87.225720148093
 21
415.361874030263
 31
0.0
  0
LINE
  5
5DF6
330
1A
100
AcDbEntity
  8
外形線
100
AcDbLine
 10
87.225720148093
 20
405.986874030263
 30
0.0
 11
87.225720148093
 21
400.361874030263
 31
0.0
  0
LINE
  5
5DF7
330
1A
100
AcDbEntity
  8
外形線
100
AcDbLine
 10
87.225720148093
 20
415.361874030263
 30
0.0
 11
132.225720148093
 21
415.361874030263
 31
0.0
  0
LINE
  5
5DF8
330
1A
100
AcDbEntity
  8
外形線
100
AcDbLine
 10
87.225720148093
 20
400.361874030263
 30
0.0
 11
132.225720148093
 21
400.361874030263
 31
0.0
  0
LINE
  5
5DF9
330
1A
100
AcDbEntity
  8
LAY-1
  6
CONTINUOUS
 62
     1
100
AcDbLine
 10
290.243874035591
 20
340.952411078363
 30
0.0
 11
289.858322718483
 21
341.337962395468
 31
0.0
  0
LINE
  5
5DFA
330
1A
100
AcDbEntity
  8
寸法線
100
AcDbLine
 10
290.925565470266
 20
365.090997940233
 30
0.0
 11
294.384027117483
 21
371.745999295208
 31
0.0
  0
LINE
  5
5DFB
330
1A
100
AcDbEntity
  8
寸法線
100
AcDbLine
 10
290.593180437283
 20
372.58362899947
 30
0.0
 11
290.925565470266
 21
365.090997940233
 31
0.0
  0
LWPOLYLINE
  5
5DFC
330
1A
100
AcDbEntity
  8
寸法線
100
AcDbPolyline
 90
        2
 70
     0
 43
0.0
 10
290.925565470266
 20
365.090997940233
 10
291.831191974803
 20
369.189576597073
  0
LINE
  5
5DFD
330
1A
100
AcDbEntity
  8
寸法線
100
AcDbLine
 10
282.845657102548
 20
394.732263750763
 30
0.0
 11
280.310927831573
 21
387.673570704393
 31
0.0
  0
LINE
  5
5DFE
330
1A
100
AcDbEntity
  8
寸法線
100
AcDbLine
 10
284.179863685353
 20
387.351891619603
 30
0.0
 11
282.845657102548
 21
394.732263750763
 31
0.0
  0
LWPOLYLINE
  5
5DFF
330
1A
100
AcDbEntity
  8
寸法線
100
AcDbPolyline
 90
        2
 70
     0
 43
0.0
 10
282.845657102548
 20
394.732263750763
 10
282.600610215508
 20
391.785007519455
  0
ARC
  5
5E00
330
1A
100
AcDbEntity
  8
寸法線
100
AcDbCircle
 10
107.085377648094
 20
407.861874030263
 30
0.0
 40
182.499999999999
100
AcDbArc
 50
329.177941414998
 51
0.0
  0
ARC
  5
5E01
330
1A
100
AcDbEntity
  8
寸法線
100
AcDbCircle
 10
107.085377648094
 20
407.861874030263
 30
0.0
 40
194.9999999999995
100
AcDbArc
 50
328.986724323651
 51
0.0
  0
ARC
  5
5E02
330
1A
100
AcDbEntity
  8
寸法線
100
AcDbCircle
 10
107.085377647829
 20
407.861874030293
 30
0.0
 40
188.7500000002663
100
AcDbArc
 50
348.177154181789
 51
355.63236315035
  0
ARC
  5
5E03
330
1A
100
AcDbEntity
  8
寸法線
100
AcDbCircle
 10
107.085377648074
 20
407.861874030266
 30
0.0
 40
176.2500000000193
100
AcDbArc
 50
347.319936169727
 51
354.766418285001
  0
LINE
  5
5E04
330
1A
100
AcDbEntity
  8
寸法線
100
AcDbLine
 10
283.366840945848
 20
360.627398299053
 30
0.0
 11
250.379217859596
 21
369.466405265236
 31
0.0
  0
ARC
  5
5E05
330
1A
100
AcDbEntity
  8
寸法線
100
AcDbCircle
 10
107.085377648093
 20
407.861874030263
 30
0.0
 40
195.0
100
AcDbArc
 50
328.986724323651
 51
0.0
  0
ARC
  5
5E06
330
1A
100
AcDbEntity
  8
寸法線
100
AcDbCircle
 10
107.085377648093
 20
407.861874030263
 30
0.0
 40
170.0
100
AcDbArc
 50
328.986724323651
 51
0.0
  0
LINE
  5
5E07
330
1A
100
AcDbEntity
  8
外形線
100
AcDbLine
 10
257.085377648091
 20
405.986874030263
 30
0.0
 11
257.085377648091
 21
409.736874030263
 31
0.0
  0
LINE
  5
5E08
330
1A
100
AcDbEntity
  8
外形線
100
AcDbLine
 10
257.085377648091
 20
405.986874030263
 30
0.0
 11
117.982710148093
 21
405.986874030263
 31
0.0
  0
LINE
  5
5E09
330
1A
100
AcDbEntity
  8
外形線
100
AcDbLine
 10
257.085377648091
 20
409.736874030263
 30
0.0
 11
117.982710148093
 21
409.736874030263
 31
0.0
  0
CIRCLE
  5
5E0A
330
1A
100
AcDbEntity
  8
中心線
 48
10.0
100
AcDbCircle
 10
107.085377648093
 20
407.861874030263
 30
0.0
 40
65.0
  0
CIRCLE
  5
5E0B
330
1A
100
AcDbEntity
  8
外形線
 48
10.0
100
AcDbCircle
 10
61.123436870967
 20
361.899933253137
 30
0.0
 40
7.5
  0
CIRCLE
  5
5E0C
330
1A
100
AcDbEntity
  8
外形線
 48
10.0
100
AcDbCircle
 10
153.047318425219
 20
453.823814807388
 30
0.0
 40
7.5
  0
CIRCLE
  5
5E0D
330
1A
100
AcDbEntity
  8
外形線
 48
10.0
100
AcDbCircle
 10
61.123436870967
 20
453.823814807388
 30
0.0
 40
7.5
  0
CIRCLE
  5
5E0E
330
1A
100
AcDbEntity
  8
外形線
 48
10.0
100
AcDbCircle
 10
153.047318425218
 20
361.899933253137
 30
0.0
 40
7.5
  0
LINE
  5
5E0F
330
1A
100
AcDbEntity
  8
中心線
 48
10.0
100
AcDbLine
 10
52.775015230015
 20
462.17223644834
 30
0.0
 11
69.471858511919
 21
445.475393166436
 31
0.0
  0
LINE
  5
5E10
330
1A
100
AcDbEntity
  8
中心線
 48
10.0
100
AcDbLine
 10
144.698896784267
 20
445.475393166436
 30
0.0
 11
161.395740066171
 21
462.17223644834
 31
0.0
  0
LINE
  5
5E11
330
1A
100
AcDbEntity
  8
中心線
 48
10.0
100
AcDbLine
 10
144.698896784267
 20
370.248354894089
 30
0.0
 11
161.395740066171
 21
353.551511612185
 31
0.0
  0
LINE
  5
5E12
330
1A
100
AcDbEntity
  8
中心線
 48
10.0
100
AcDbLine
 10
52.775015230015
 20
353.551511612185
 30
0.0
 11
69.471858511919
 21
370.248354894089
 31
0.0
  0
LINE
  5
5E13
330
1A
100
AcDbEntity
  8
中心線
 48
10.0
100
AcDbLine
 10
107.085377648093
 20
500.6458622955
 30
0.0
 11
107.085377648093
 21
315.077885765026
 31
0.0
  0
LINE
  5
5E14
330
1A
100
AcDbEntity
  8
中心線
 48
10.0
100
AcDbLine
 10
14.301389382856
 20
407.861874030263
 30
0.0
 11
260.604823569322
 21
407.861874030263
 31
0.0
  0
LEADER
  5
5E15
330
1A
100
AcDbEntity
  8
寸法線
 48
10.0
100
AcDbLeader
  3
ISO-25
 76
     3
 10
61.123436870967
 20
461.323814807388
 30
0.0
 10
48.232574567548
 20
496.301295614584
 30
0.0
 10
11.597553655523
 20
496.301295614584
 30
0.0
1001
ACAD
1000
DSTYLE
1002
{
1070
     5
1000
OPEN30
1070
   147
1040
0.625
1070
    77
1070
     0
1070
    41
1040
6.0
1070
    47
1040
0.1
1070
    48
1040
0.1
1070
    73
1070
     0
1070
   140
1040
5.0
1070
   271
1070
     1
1070
   272
1070
     1
1070
   341
1005
2AEB
1070
   342
1005
2AEB
1002
}
  0
MTEXT
  5
5E16
330
1A
100
AcDbEntity
  8
寸法線
 48
10.0
100
AcDbMText
 10
12.258443948869
 20
506.998758028877
 30
0.0
 40
10.0
 41
36.724945077364
 71
     1
 72
     5
  1
4-φ15
  0
DIMENSION
  5
5E17
330
1A
100
AcDbEntity
  8
寸法線
 48
10.0
100
AcDbDimension
  2
*D48
 10
197.866990135753
 20
405.986874030263
 30
0.0
 11
197.866990135753
 21
428.568980811449
 31
0.0
 70
   160
  1
1.5
  3
ISO-25
100
AcDbAlignedDimension
 13
197.866990135753
 23
409.736874030263
 33
0.0
 14
197.866990135753
 24
405.986874030263
 34
0.0
 50
90.0
100
AcDbRotatedDimension
1001
ACAD
1000
DSTYLE
1002
{
1070
     5
1000
OPEN30
1070
    41
1040
6.0
1070
    47
1040
0.1
1070
    48
1040
0.1
1070
    73
1070
     0
1070
   140
1040
10.0
1070
   271
1070
     1
1070
   272
1070
     1
1070
   341
1005
2AEB
1002
}
  0
DIMENSION
  5
5E18
330
1A
100
AcDbEntity
  8
寸法線
 48
10.0
100
AcDbDimension
  2
*D49
 10
49.763455029215
 20
377.215549825305
 30
0.0
 11
149.341613446818
 21
430.453550003502
 31
0.0
 70
   161
  1
φ130
  3
ISO-25
100
AcDbAlignedDimension
 13
164.407300266971
 23
438.508198235219
 33
0.0
 14
49.763455029215
 24
377.215549825306
 34
0.0
1001
ACAD
1000
DSTYLE
1002
{
1070
     5
1000
OPEN30
1070
    41
1040
6.0
1070
    47
1040
0.1
1070
    48
1040
0.1
1070
    73
1070
     0
1070
   140
1040
10.0
1070
   271
1070
     1
1070
   272
1070
     1
1070
   341
1005
2AEB
1002
}
  0
DIMENSION
  5
5E19
330
1A
100
AcDbEntity
  8
寸法線
 48
10.0
100
AcDbDimension
  2
*D50
 10
183.21685558753
 20
422.361807366556
 30
0.0
 11
154.249627671281
 21
416.844734992669
 31
0.0
 70
   161
  1
φ155
  3
ISO-25
100
AcDbAlignedDimension
 13
30.953899708656
 23
393.361940693968
 33
0.0
 14
183.21685558753
 24
422.361807366557
 34
0.0
1001
ACAD
1000
DSTYLE
1002
{
1070
     5
1000
OPEN30
1070
    41
1040
6.0
1070
    47
1040
0.1
1070
    48
1040
0.1
1070
    73
1070
     0
1070
   140
1040
10.0
1070
   271
1070
     1
1070
   272
1070
     1
1070
   341
1005
2AEB
1002
}
  0
LINE
  5
5E1A
330
1A
100
AcDbEntity
  8
中心線
 48
10.0
100
AcDbLine
 10
127.225720148093
 20
418.706371530263
 30
0.0
 11
127.225720148093
 21
396.971504030263
 31
0.0
  0
LINE
  5
5E1B
330
1A
100
AcDbEntity
  8
中心線
 48
10.0
100
AcDbLine
 10
92.225720148093
 20
423.699554030263
 30
0.0
 11
92.225720148093
 21
392.024194030263
 31
0.0
  0
LINE
  5
5E1C
330
1A
100
AcDbEntity
  8
寸法線
 48
10.0
100
AcDbLine
 10
313.817754220992
 20
332.617442498613
 30
0.0
 11
136.742169581814
 21
397.067684522563
 31
0.0
  0
DIMENSION
  5
5E1D
330
1A
100
AcDbEntity
  8
寸法線
 48
10.0
100
AcDbDimension
  2
*D51
 10
263.16213622053
 20
407.861874030263
 30
0.0
 11
322.021864308069
 21
369.962772293423
 31
0.0
 70
    34
  1
約<>
  3
ISO-25
100
AcDb2LineAngularDimension
 13
313.817754220992
 23
332.617442498613
 33
0.0
 14
136.742169581814
 24
397.067684522563
 34
0.0
 15
14.301389382856
 25
407.861874030263
 35
0.0
 16
324.938102285642
 26
356.229829810179
 36
0.0
1001
ACAD
1000
DSTYLE
1002
{
1070
     5
1000
OPEN30
1070
    41
1040
6.0
1070
    47
1040
0.1
1070
    48
1040
0.1
1070
    73
1070
     0
1070
   140
1040
10.0
1070
   271
1070
     1
1070
   272
1070
     1
1070
   341
1005
2AEB
1002
}
  0
DIMENSION
  5
5E1E
330
1A
100
AcDbEntity
  8
寸法線
 48
10.0
100
AcDbDimension
  2
*D52
 10
242.200561572316
 20
371.657869612585
 30
0.0
 11
244.65699643304
 21
376.721117086672
 31
0.0
 70
   162
  1
約<>
  3
ISO-25
100
AcDb2LineAngularDimension
 13
313.817754220992
 23
332.617442498613
 33
0.0
 14
136.742169581814
 24
397.067684522563
 34
0.0
 15
283.366840945848
 25
360.627398299053
 35
0.0
 16
251.740109174793
 26
359.928516250448
 36
0.0
1001
ACAD
1000
DSTYLE
1002
{
1070
   287
1070
     5
1070
     5
1000
OPEN30
1070
    41
1040
6.0
1070
    47
1040
0.1
1070
    48
1040
0.1
1070
    73
1070
     0
1070
   140
1040
10.0
1070
   271
1070
     1
1070
   272
1070
     1
1070
   279
1070
     2
1070
   341
1005
2AEB
1002
}
  0
MTEXT
  5
5E1F
330
1A
100
AcDbEntity
  8
寸法線
 48
10.0
100
AcDbMText
 10
279.53600156149
 20
421.66821388829
 30
0.0
 40
10.0
 41
108.130169302799
 71
     1
 72
     5
  1
羽根通常停止位置
  0
ARC
  5
5E40
330
1A
100
AcDbEntity
  8
外形線
 48
10.0
100
AcDbCircle
 10
107.085377648102
 20
407.861874030263
 30
0.0
 40
17.00000000000007
100
AcDbArc
 50
26.178968704013
 51
128.637547725966
  0
ARC
  5
5E41
330
1A
100
AcDbEntity
  8
外形線
 48
10.0
100
AcDbCircle
 10
107.085377648102
 20
407.861874030263
 30
0.0
 40
16.99999999999984
100
AcDbArc
 50
206.178968704011
 51
333.821031295989
  0
ARC
  5
5E42
330
1A
100
AcDbEntity
  8
外形線
 48
10.0
100
AcDbCircle
 10
107.085377648092
 20
407.861874030262
 30
0.0
 40
77.5000000000006
100
AcDbArc
 50
1.386323478737
 51
358.613676521264
  0
MTEXT
  5
5EF1
330
1A
100
AcDbEntity
  8
寸法線
 48
10.0
100
AcDbMText
 10
301.597028484813
 20
328.058724892372
 30
0.0
 40
10.0
 41
66.927899269888
 71
     1
 72
     5
  1
動作角度
  0
LINE
  5
6035
330
1A
100
AcDbEntity
  8
外形線
100
AcDbLine
 10
465.167462971179
 20
405.986874030263
 30
0.0
 11
465.167462971179
 21
403.002254030262
 31
0.0
  0
DIMENSION
  5
6039
330
1A
100
AcDbEntity
  8
寸法線
 48
10.0
100
AcDbDimension
  2
*D53
 10
493.16746297118
 20
365.361874030263
 30
0.0
 11
480.66746297118
 21
370.992082363596
 31
0.0
 70
    32
  3
ISO-25
100
AcDbAlignedDimension
 13
468.16746297118
 23
400.361874030263
 33
0.0
 14
493.16746297118
 24
400.361874030263
 34
0.0
100
AcDbRotatedDimension
1001
ACAD
1000
DSTYLE
1002
{
1070
     5
1000
OPEN30
1070
    41
1040
6.0
1070
   271
1070
     1
1070
   341
1005
2AEB
1070
   272
1070
     1
1070
    73
1070
     0
1070
    48
1040
0.1
1070
    47
1040
0.1
1070
   140
1040
10.0
1002
}
  0
VIEWPORT
  5
2902
330
28FB
100
AcDbEntity
 67
     1
  8
0
 48
10.0
100
AcDbViewport
 10
0.0
 20
0.0
 30
0.0
 40
502.95142106721
 41
266.951138874134
 68
     1
 69
     1
1001
ACAD
1000
MVIEW
1002
{
1070
    16
1010
0.0
1020
0.0
1030
0.0
1010
0.0
1020
0.0
1030
1.0
1040
0.0
1040
266.951138874134
1040
222.086737299251
1040
110.34815846833
1040
50.0
1040
0.0
1040
0.0
1070
    16
1070
   100
1070
     0
1070
     1
1070
     0
1070
     0
1070
     0
1070
     0
1040
0.0
1040
0.0
1040
0.0
1040
10.0
1040
10.0
1040
10.0
1040
10.0
1070
     0
1002
{
1002
}
1002
}
  0
VIEWPORT
  5
2904
330
28FB
100
AcDbEntity
 67
     1
  8
図枠太線
 48
10.0
100
AcDbViewport
 10
204.746305129083
 20
163.457123274536
 30
0.0
 40
400.0
 41
240.0
 68
     2
 69
     2
1001
ACAD
1000
MVIEW
1002
{
1070
    16
1010
0.0
1020
0.0
1030
0.0
1010
0.0
1020
0.0
1030
1.0
1040
0.0
1040
600.000000380771
1040
453.709209614386
1040
287.634879862605
1040
50.0
1040
0.0
1040
0.0
1070
     0
1070
   100
1070
     0
1070
     0
1070
     0
1070
     0
1070
     0
1070
     0
1040
0.0
1040
0.0
1040
0.0
1040
1.0
1040
1.0
1040
0.0
1040
0.0
1070
     0
1002
{
1002
}
1002
}
  0
INSERT
  5
2A59
330
28FB
100
AcDbEntity
 67
     1
  8
図枠太線
100
AcDbBlockReference
  2
A3横用_タイトル
 10
-0.352109406709
 20
-0.068836478991
 30
0.0
  0
MTEXT
  5
31B1
330
28FB
100
AcDbEntity
 67
     1
  8
寸法線
 48
10.0
100
AcDbMText
 10
146.329636270656
 20
16.34448462304
 30
0.0
 40
7.0
 41
17.722495000522
 71
     1
 72
     5
  1
1:2.5
  0
MTEXT
  5
31B4
102
{ACAD_XDICTIONARY
360
602A
102
}
330
28FB
100
AcDbEntity
 67
     1
  8
寸法線
 48
10.0
100
AcDbMText
 10
343.41411075628
 20
17.345158694154
 30
0.0
 40
7.0
 41
36.987144228194
 71
     1
 72
     5
  1
\H1.143x;HY-5002
1001
ACADANNOTATIVE
1000
AnnotativeData
1002
{
1070
     1
1070
     0
1002
}
  0
MTEXT
  5
31B5
330
28FB
100
AcDbEntity
 67
     1
  8
寸法線
 48
10.0
100
AcDbMText
 10
320.165597342587
 20
35.989079454545
 30
0.0
 40
8.0
 41
24.128904612543
 71
     1
 72
     5
  1
PAF-1
  0
MTEXT
  5
31B6
330
28FB
100
AcDbEntity
 67
     1
  8
寸法線
 48
10.0
100
AcDbMText
 10
377.701941238986
 20
40.080736974002
 30
0.0
 40
5.0
 41
0.0
 71
     1
 72
     5
  1
通過警報\Pスイッチ
  0
MTEXT
  5
31B7
102
{ACAD_XDICTIONARY
360
5FE1
102
}
330
28FB
100
AcDbEntity
 67
     1
  8
寸法線
 48
10.0
100
AcDbMText
 10
371.884164254175
 20
53.091531849722
 30
0.0
 40
5.0
 41
52.347826086957
 71
     1
 72
     5
  1
台数   台
1001
ACADANNOTATIVE
1000
AnnotativeData
1002
{
1070
     1
1070
     0
1002
}
  0
MTEXT
  5
5932
102
{ACAD_XDICTIONARY
360
5FDB
102
}
330
28FB
100
AcDbEntity
 67
     1
  8
寸法線
 48
10.0
100
AcDbMText
 10
175.007862142054
 20
14.753678462948
 30
0.0
 40
4.0
 41
23.156665718806
 71
     1
 72
     5
  1
\H1.25x;2015.6.16
1001
ACADANNOTATIVE
1000
AnnotativeData
1002
{
1070
     1
1070
     0
1002
}
  0
MTEXT
  5
5933
102
{ACAD_XDICTIONARY
360
5FDE
102
}
330
28FB
100
AcDbEntity
 67
     1
  8
寸法線
 48
10.0
100
AcDbMText
 10
180.323592668084
 20
34.176191452949
 30
0.0
 40
4.5
 41
21.375384236178
 71
     1
 72
     5
  1
ohno
1001
ACADANNOTATIVE
1000
AnnotativeData
1002
{
1070
     1
1070
     0
1002
}
  0
MTEXT
  5
6046
330
28FB
100
AcDbEntity
 67
     1
  8
寸法線
 48
10.0
100
AcDbMText
 10
236.830306841176
 20
40.995671169761
 30
0.0
 40
4.5
 41
81.832775445692
 71
     1
 72
     1
  1
時計方向動作
  0
ENDSEC
  0
SECTION
  2
OBJECTS
  0
DICTIONARY
  5
C
330
0
100
AcDbDictionary
  3
ACAD_COLOR
350
2948
  3
ACAD_GROUP
350
D
  3
ACAD_LAYOUT
350
2816
  3
ACAD_MATERIAL
350
2947
  3
ACAD_MLEADERSTYLE
350
5AEA
  3
ACAD_MLINESTYLE
350
E
  3
ACAD_PLOTSETTINGS
350
2817
  3
ACAD_SCALELIST
350
5AC3
  3
ACAD_VISUALSTYLE
350
5AAA
  3
ACADDIM
350
4AF1
  3
ACDBHEADERROUNDTRIPXREC
350
6047
  3
ACDBVARIABLEDICTIONARY
350
602D
  3
DWGPROPS
350
606C
  0
DICTIONARY
  5
606D
330
8
100
AcDbDictionary
280
     1
  3
ACAD_XREC_ROUNDTRIP
360
606E
  0
DICTIONARY
  5
29EA
330
2
100
AcDbDictionary
280
     1
  3
ACAD_LAYERFILTERS
360
2B03
  3
ACAD_LAYERSTATES
360
29EB
  0
DICTIONARY
  5
6036
330
4435
100
AcDbDictionary
280
     1
  3
ACDBCONTEXTDATAMANAGER
360
6037
  0
DICTIONARY
  5
602A
330
31B4
100
AcDbDictionary
280
     1
  3
ACDBCONTEXTDATAMANAGER
360
602B
  0
DICTIONARY
  5
5FE1
330
31B7
100
AcDbDictionary
280
     1
  3
ACDBCONTEXTDATAMANAGER
360
5FE2
  0
DICTIONARY
  5
5FDB
330
5932
100
AcDbDictionary
280
     1
  3
ACDBCONTEXTDATAMANAGER
360
5FDC
  0
DICTIONARY
  5
5FDE
330
5933
100
AcDbDictionary
280
     1
  3
ACDBCONTEXTDATAMANAGER
360
5FDF
  0
DICTIONARY
  5
2948
102
{ACAD_REACTORS
330
C
102
}
330
C
100
AcDbDictionary
  0
DICTIONARY
  5
D
102
{ACAD_REACTORS
330
C
102
}
330
C
100
AcDbDictionary
  0
DICTIONARY
  5
2816
102
{ACAD_REACTORS
330
C
102
}
330
C
100
AcDbDictionary
  0
DICTIONARY
  5
2947
102
{ACAD_REACTORS
330
C
102
}
330
C
100
AcDbDictionary
  3
BYBLOCK
350
5AE6
  3
BYLAYER
350
5AE5
  3
GLOBAL
350
5AE7
  0
DICTIONARY
  5
5AEA
102
{ACAD_REACTORS
330
C
102
}
330
C
100
AcDbDictionary
  3
STANDARD
350
5AEB
  0
DICTIONARY
  5
E
102
{ACAD_REACTORS
330
C
102
}
330
C
100
AcDbDictionary
  3
STANDARD
350
13
  0
DICTIONARY
  5
2817
102
{ACAD_REACTORS
330
C
102
}
330
C
100
AcDbDictionary
  0
DICTIONARY
  5
5AC3
102
{ACAD_REACTORS
330
C
102
}
330
C
100
AcDbDictionary
  3
A0
350
5AC4
  3
A1
350
5AC5
  3
A2
350
5AC6
  3
A3
350
5AC7
  3
A4
350
5AC8
  3
A5
350
5AC9
  3
A6
350
5ACA
  3
A7
350
5ACB
  3
A8
350
5ACC
  3
A9
350
5ACD
  3
B0
350
5ACE
  3
B1
350
5ACF
  3
B2
350
5AD0
  3
B3
350
5AD1
  3
B4
350
5AD2
  3
B5
350
5AD3
  3
B6
350
5AD4
  3
B7
350
5AD5
  3
B8
350
5AD6
  3
B9
350
5AD7
  3
C0
350
5AD8
  3
C1
350
5AD9
  3
C2
350
5ADA
  3
C3
350
5ADB
  3
C4
350
5ADC
  3
C5
350
5ADD
  3
C6
350
5ADE
  3
C7
350
5ADF
  3
C8
350
5AE0
  3
C9
350
5AE1
  3
D0
350
5AE2
  3
D1
350
5AE3
  3
D2
350
5AE4
  0
DICTIONARY
  5
5AAA
102
{ACAD_REACTORS
330
C
102
}
330
C
100
AcDbDictionary
  3
2DWIREFRAME
350
5AAF
  3
BASIC
350
5AB2
  3
BRIGHTEN
350
5AB6
  3
COLORCHANGE
350
5ABA
  3
CONCEPTUAL
350
5AB4
  3
DIM
350
5AB5
  3
EDGECOLOROFF
350
5ABD
  3
FACEPATTERN
350
5AB9
  3
FLAT
350
5AAB
  3
FLATWITHEDGES
350
5AAC
  3
GOURAUD
350
5AAD
  3
GOURAUDWITHEDGES
350
5AAE
  3
HIDDEN
350
5AB1
  3
JITTEROFF
350
5ABB
  3
LINEPATTERN
350
5AB8
  3
OVERHANGOFF
350
5ABC
  3
REALISTIC
350
5AB3
  3
SHADED
350
5AC2
  3
SHADED_WITH_EDGES
350
5AC1
  3
SHADES_OF_GRAY
350
5ABE
  3
SKETCHY
350
5ABF
  3
THICKEN
350
5AB7
  3
WIREFRAME
350
5AB0
  3
X-RAY
350
5AC0
  0
XRECORD
  5
4AF1
102
{ACAD_REACTORS
330
C
102
}
330
C
100
AcDbXrecord
 90
   990106
  3

 60
     0
 61
     0
 62
     1
 63
     3
 64
     0
 65
     0
 66
     0
 67
     3
 68
     1
 69
     0
 70
     0
 71
     0
 72
     0
 40
0.0
170
     0
  0
DICTIONARY
  5
6047
102
{ACAD_REACTORS
330
C
102
}
330
C
100
AcDbDictionary
  3
CEPSNID
350
6051
  3
CEPSNTYPE
350
6050
  3
COLORDICT
350
606A
  3
DIMSTYLEDATA
350
6067
  3
FINGERPRINTGUID
350
6052
  3
HYPERLINKBASE
350
604A
  3
INSUNITS
350
604F
  3
LAYOUTDICT
350
604C
  3
LWETCUNION
350
604E
  3
MATERIALDICT
350
606B
  3
PLOTSETDICT
350
604D
  3
PSVPSCALE
350
6054
  3
PUCSBASE
350
6057
  3
PUCSORGBACK
350
605D
  3
PUCSORGBOTTOM
350
6059
  3
PUCSORGFRONT
350
605C
  3
PUCSORGLEFT
350
605A
  3
PUCSORGRIGHT
350
605B
  3
PUCSORGTOP
350
6058
  3
PUCSORTHOREF
350
6055
  3
PUCSORTHOVIEW
350
6056
  3
STYLESHEET
350
604B
  3
TSTACKALIGN
350
6048
  3
TSTACKSIZE
350
6049
  3
UCSBASE
350
6060
  3
UCSORGBACK
350
6066
  3
UCSORGBOTTOM
350
6062
  3
UCSORGFRONT
350
6065
  3
UCSORGLEFT
350
6063
  3
UCSORGRIGHT
350
6064
  3
UCSORGTOP
350
6061
  3
UCSORTHOREF
350
605E
  3
UCSORTHOVIEW
350
605F
  3
VERSIONGUID
350
6053
  0
DICTIONARY
  5
602D
102
{ACAD_REACTORS
330
C
102
}
330
C
100
AcDbDictionary
  3
CANNOSCALE
350
602E
  3
CMLEADERSTYLE
350
6030
  3
CTABLESTYLE
350
602F
  3
DIMASSOC
350
6068
  3
HIDETEXT
350
6069
  3
MSLTSCALE
350
6031
  3
XCLIPFRAME
350
6032
  0
XRECORD
  5
606C
102
{ACAD_REACTORS
330
C
102
}
330
C
100
AcDbXrecord
  1
DWGPROPS COOKIE
  2

  3

  4

  6

  7

  8
y-ohno
  9

300
=
301
=
302
=
303
=
304
=
305
=
306
=
307
=
308
=
309
=
 40
0.0
 41
2450576.222302431
 42
2457191.295449907
  1

 90
        0
  0
XRECORD
  5
606E
102
{ACAD_REACTORS
330
606D
102
}
330
606D
100
AcDbXrecord
102
VTR_0.000_0.000_1.000_1.000_VISUALSTYLE
340
5AAF
102
VTR_0.000_0.000_1.000_1.000_GRIDDISPLAY
 70
     3
102
VTR_0.000_0.000_1.000_1.000_GRIDMAJOR
 70
     5
102
VTR_0.000_0.000_1.000_1.000_DEFAULTLIGHTING
280
     1
102
VTR_0.000_0.000_1.000_1.000_DEFAULTLIGHTINGTYPE
 70
     1
102
VTR_0.000_0.000_1.000_1.000_BRIGHTNESS
141
0.0
102
VTR_0.000_0.000_1.000_1.000_CONTRAST
142
0.0
  0
DICTIONARY
  5
2B03
102
{ACAD_REACTORS
330
29EA
102
}
330
29EA
100
AcDbDictionary
  0
DICTIONARY
  5
29EB
102
{ACAD_REACTORS
330
29EA
102
}
330
29EA
100
AcDbDictionary
  0
DICTIONARY
  5
6037
102
{ACAD_REACTORS
330
6036
102
}
330
6036
100
AcDbDictionary
  3
ACDB_ANNOTATIONSCALES
350
6038
  0
DICTIONARY
  5
602B
102
{ACAD_REACTORS
330
602A
102
}
330
602A
100
AcDbDictionary
  3
ACDB_ANNOTATIONSCALES
350
602C
  0
DICTIONARY
  5
5FE2
102
{ACAD_REACTORS
330
5FE1
102
}
330
5FE1
100
AcDbDictionary
  3
ACDB_ANNOTATIONSCALES
350
5FE3
  0
DICTIONARY
  5
5FDC
102
{ACAD_REACTORS
330
5FDB
102
}
330
5FDB
100
AcDbDictionary
  3
ACDB_ANNOTATIONSCALES
350
5FDD
  0
DICTIONARY
  5
5FDF
102
{ACAD_REACTORS
330
5FDE
102
}
330
5FDE
100
AcDbDictionary
  3
ACDB_ANNOTATIONSCALES
350
5FE0
  0
MATERIAL
  5
5AE6
102
{ACAD_REACTORS
330
2947
102
}
102
{ACAD_XDICTIONARY
360
6071
102
}
330
2947
100
AcDbMaterial
  1
BYBLOCK
  0
MATERIAL
  5
5AE5
102
{ACAD_REACTORS
330
2947
102
}
102
{ACAD_XDICTIONARY
360
606F
102
}
330
2947
100
AcDbMaterial
  1
BYLAYER
  0
MATERIAL
  5
5AE7
102
{ACAD_REACTORS
330
2947
102
}
102
{ACAD_XDICTIONARY
360
6073
102
}
330
2947
100
AcDbMaterial
  1
GLOBAL
  0
ACAD_PROXY_OBJECT
  5
5AEB
102
{ACAD_REACTORS
330
5AEA
102
}
330
5AEA
100
AcDbProxyObject
 90
      499
 91
      508
 93
      610
310
40901902A4063FBFFFFFE0000000000000020400000000000020404214DD185B99185C990000000000000104090141901A00000000000004100000000000000041025764000000000000039000
340
14
340
0
340
10
340
0
 94
        0
1001
ACAD_MLEADERVER
1070
     2
  0
MLINESTYLE
  5
13
102
{ACAD_REACTORS
330
E
102
}
330
E
100
AcDbMlineStyle
  2
STANDARD
 70
     0
  3

 62
     0
 51
90.0
 52
90.0
 71
     2
 49
0.5
 62
   256
  6
BYLAYER
 49
-0.5
 62
   256
  6
BYLAYER
  0
ACAD_PROXY_OBJECT
  5
5AC4
102
{ACAD_REACTORS
330
5AC3
102
}
330
5AC3
100
AcDbProxyObject
 90
      499
 91
      505
 93
       41
310
903313A31580
  0
ACAD_PROXY_OBJECT
  5
5AC5
102
{ACAD_REACTORS
330
5AC3
102
}
330
5AC3
100
AcDbProxyObject
 90
      499
 91
      505
 93
      105
310
903313A324000000000000004000
  0
ACAD_PROXY_OBJECT
  5
5AC6
102
{ACAD_REACTORS
330
5AC3
102
}
330
5AC3
100
AcDbProxyObject
 90
      499
 91
      505
 93
      105
310
903313A344000000000000104000
  0
ACAD_PROXY_OBJECT
  5
5AC7
102
{ACAD_REACTORS
330
5AC3
102
}
330
5AC3
100
AcDbProxyObject
 90
      499
 91
      505
 93
      105
310
903313A354000000000000144000
  0
ACAD_PROXY_OBJECT
  5
5AC8
102
{ACAD_REACTORS
330
5AC3
102
}
330
5AC3
100
AcDbProxyObject
 90
      499
 91
      505
 93
      105
310
903313A384000000000000204000
  0
ACAD_PROXY_OBJECT
  5
5AC9
102
{ACAD_REACTORS
330
5AC3
102
}
330
5AC3
100
AcDbProxyObject
 90
      499
 91
      505
 93
      113
310
904313A31304000000000000244000
  0
ACAD_PROXY_OBJECT
  5
5ACA
102
{ACAD_REACTORS
330
5AC3
102
}
330
5AC3
100
AcDbProxyObject
 90
      499
 91
      505
 93
      113
310
904313A31364000000000000304000
  0
ACAD_PROXY_OBJECT
  5
5ACB
102
{ACAD_REACTORS
330
5AC3
102
}
330
5AC3
100
AcDbProxyObject
 90
      499
 91
      505
 93
      113
310
904313A32304000000000000344000
  0
ACAD_PROXY_OBJECT
  5
5ACC
102
{ACAD_REACTORS
330
5AC3
102
}
330
5AC3
100
AcDbProxyObject
 90
      499
 91
      505
 93
      113
310
904313A333040000000000003E4000
  0
ACAD_PROXY_OBJECT
  5
5ACD
102
{ACAD_REACTORS
330
5AC3
102
}
330
5AC3
100
AcDbProxyObject
 90
      499
 91
      505
 93
      113
310
904313A34304000000000000444000
  0
ACAD_PROXY_OBJECT
  5
5ACE
102
{ACAD_REACTORS
330
5AC3
102
}
330
5AC3
100
AcDbProxyObject
 90
      499
 91
      505
 93
      113
310
904313A35304000000000000494000
  0
ACAD_PROXY_OBJECT
  5
5ACF
102
{ACAD_REACTORS
330
5AC3
102
}
330
5AC3
100
AcDbProxyObject
 90
      499
 91
      505
 93
      121
310
905313A3130304000000000000594000
  0
ACAD_PROXY_OBJECT
  5
5AD0
102
{ACAD_REACTORS
330
5AC3
102
}
330
5AC3
100
AcDbProxyObject
 90
      499
 91
      505
 93
      105
310
903323A310000000000000010100
  0
ACAD_PROXY_OBJECT
  5
5AD1
102
{ACAD_REACTORS
330
5AC3
102
}
330
5AC3
100
AcDbProxyObject
 90
      499
 91
      505
 93
      105
310
903343A310000000000000410100
  0
ACAD_PROXY_OBJECT
  5
5AD2
102
{ACAD_REACTORS
330
5AC3
102
}
330
5AC3
100
AcDbProxyObject
 90
      499
 91
      505
 93
      105
310
903383A310000000000000810100
  0
ACAD_PROXY_OBJECT
  5
5AD3
102
{ACAD_REACTORS
330
5AC3
102
}
330
5AC3
100
AcDbProxyObject
 90
      499
 91
      505
 93
      113
310
90431303A310000000000000910100
  0
ACAD_PROXY_OBJECT
  5
5AD4
102
{ACAD_REACTORS
330
5AC3
102
}
330
5AC3
100
AcDbProxyObject
 90
      499
 91
      505
 93
      121
310
9053130303A310000000000001650100
  0
ACAD_PROXY_OBJECT
  5
5AD5
102
{ACAD_REACTORS
330
5AC3
102
}
330
5AC3
100
AcDbProxyObject
 90
      499
 91
      505
 93
      257
310
90E312F31323822203D2031272D3022000000000000200FC000000000000284000
  0
ACAD_PROXY_OBJECT
  5
5AD6
102
{ACAD_REACTORS
330
5AC3
102
}
330
5AC3
100
AcDbProxyObject
 90
      499
 91
      505
 93
      249
310
90D312F363422203D2031272D3022000000000000240FC000000000000284000
  0
ACAD_PROXY_OBJECT
  5
5AD7
102
{ACAD_REACTORS
330
5AC3
102
}
330
5AC3
100
AcDbProxyObject
 90
      499
 91
      505
 93
      249
310
90D312F333222203D2031272D3022000000000000280FC000000000000284000
  0
ACAD_PROXY_OBJECT
  5
5AD8
102
{ACAD_REACTORS
330
5AC3
102
}
330
5AC3
100
AcDbProxyObject
 90
      499
 91
      505
 93
      249
310
90D312F313622203D2031272D30220000000000002C0FC000000000000284000
  0
ACAD_PROXY_OBJECT
  5
5AD9
102
{ACAD_REACTORS
330
5AC3
102
}
330
5AC3
100
AcDbProxyObject
 90
      499
 91
      505
 93
      249
310
90D332F333222203D2031272D30220000000000002E0FC000000000000284000
  0
ACAD_PROXY_OBJECT
  5
5ADA
102
{ACAD_REACTORS
330
5AC3
102
}
330
5AC3
100
AcDbProxyObject
 90
      499
 91
      505
 93
      241
310
90C312F3822203D2031272D3022000000000000300FC000000000000284000
  0
ACAD_PROXY_OBJECT
  5
5ADB
102
{ACAD_REACTORS
330
5AC3
102
}
330
5AC3
100
AcDbProxyObject
 90
      499
 91
      505
 93
      249
310
90D332F313622203D2031272D3022000000000000320FC000000000000284000
  0
ACAD_PROXY_OBJECT
  5
5ADC
102
{ACAD_REACTORS
330
5AC3
102
}
330
5AC3
100
AcDbProxyObject
 90
      499
 91
      505
 93
      241
310
90C312F3422203D2031272D3022000000000000340FC000000000000284000
  0
ACAD_PROXY_OBJECT
  5
5ADD
102
{ACAD_REACTORS
330
5AC3
102
}
330
5AC3
100
AcDbProxyObject
 90
      499
 91
      505
 93
      241
310
90C332F3822203D2031272D3022000000000000360FC000000000000284000
  0
ACAD_PROXY_OBJECT
  5
5ADE
102
{ACAD_REACTORS
330
5AC3
102
}
330
5AC3
100
AcDbProxyObject
 90
      499
 91
      505
 93
      241
310
90C312F3222203D2031272D3022000000000000380FC000000000000284000
  0
ACAD_PROXY_OBJECT
  5
5ADF
102
{ACAD_REACTORS
330
5AC3
102
}
330
5AC3
100
AcDbProxyObject
 90
      499
 91
      505
 93
      241
310
90C332F3422203D2031272D30220000000000003A0FC000000000000284000
  0
ACAD_PROXY_OBJECT
  5
5AE0
102
{ACAD_REACTORS
330
5AC3
102
}
330
5AC3
100
AcDbProxyObject
 90
      499
 91
      505
 93
      161
310
90A3122203D2031272D30224000000000000284000
  0
ACAD_PROXY_OBJECT
  5
5AE1
102
{ACAD_REACTORS
330
5AC3
102
}
330
5AC3
100
AcDbProxyObject
 90
      499
 91
      505
 93
      257
310
90E312D312F3222203D2031272D30220000000000003E0FC000000000000284000
  0
ACAD_PROXY_OBJECT
  5
5AE2
102
{ACAD_REACTORS
330
5AC3
102
}
330
5AC3
100
AcDbProxyObject
 90
      499
 91
      505
 93
      225
310
90A3322203D2031272D302200000000000002100000000000000284000
  0
ACAD_PROXY_OBJECT
  5
5AE3
102
{ACAD_REACTORS
330
5AC3
102
}
330
5AC3
100
AcDbProxyObject
 90
      499
 91
      505
 93
      225
310
90A3622203D2031272D302200000000000006100000000000000284000
  0
ACAD_PROXY_OBJECT
  5
5AE4
102
{ACAD_REACTORS
330
5AC3
102
}
330
5AC3
100
AcDbProxyObject
 90
      499
 91
      505
 93
      249
310
90D31272D3022203D2031272D30220000000000000A100000000000000284000
  0
ACAD_PROXY_OBJECT
  5
5AAF
102
{ACAD_REACTORS
330
5AAA
102
}
330
5AAA
100
AcDbProxyObject
 90
      499
 91
      504
 93
      436
310
42CC9915DA5C99599C985B595049028333333333333E33F0000000000000F90107901411070040501600405405064090741402480A0340
1001
ACAD
1000
AcDbSavedByObjectVersion
1070
     0
  0
ACAD_PROXY_OBJECT
  5
5AB2
102
{ACAD_REACTORS
330
5AAA
102
}
330
5AAA
100
AcDbProxyObject
 90
      499
 91
      504
 93
      388
310
4150985CDA58D07406404333333333333E33F0000000000000F90107A41107004050150841D405064090741402480A0350
1001
ACAD
1000
AcDbSavedByObjectVersion
1070
     0
  0
ACAD_PROXY_OBJECT
  5
5AB6
102
{ACAD_REACTORS
330
5AAA
102
}
330
5AAA
100
AcDbProxyObject
 90
      499
 91
      504
 93
      428
310
42109C9A59DA1D195B90C409028333333333333E33F0000000000000F9010790141107004050150841D405064090741402480A029950
1001
ACAD
1000
AcDbSavedByObjectVersion
1070
     0
  0
ACAD_PROXY_OBJECT
  5
5ABA
102
{ACAD_REACTORS
330
5AAA
102
}
330
5AAA
100
AcDbProxyObject
 90
      499
 91
      504
 93
      452
310
42D0DBDB1BDC90DA185B99D95104090240C333333333333E33F0000000000000F90108901411070040501508421405064090741402480A0350
1001
ACAD
1000
AcDbSavedByObjectVersion
1070
     0
  0
ACAD_PROXY_OBJECT
  5
5AB4
102
{ACAD_REACTORS
330
5AAA
102
}
330
5AAA
100
AcDbProxyObject
 90
      499
 91
      504
 93
      500
310
4290DBDB98D95C1D1D585B10940D028333333333333E33F0000000000000F90107902409070040501000000000018199010841D405064090740C02480A0340
1001
ACAD
1000
AcDbSavedByObjectVersion
1070
     0
  0
ACAD_PROXY_OBJECT
  5
5AB5
102
{ACAD_REACTORS
330
5AAA
102
}
330
5AAA
100
AcDbProxyObject
 90
      499
 91
      504
 93
      412
310
40D11A5B50B409028333333333333E33F0000000000000F9010790141107004050150841D405064090741402480A02677FFFFFD0
1001
ACAD
1000
AcDbSavedByObjectVersion
1070
     0
  0
ACAD_PROXY_OBJECT
  5
5ABD
102
{ACAD_REACTORS
330
5AAA
102
}
330
5AAA
100
AcDbProxyObject
 90
      499
 91
      504
 93
      452
310
43115919D950DBDB1BDC93D999916409028333333333333E33F0000000000000F9010790141107004050150841D405064090741402480A0350
1001
ACAD
1000
AcDbSavedByObjectVersion
1070
     0
  0
ACAD_PROXY_OBJECT
  5
5AB9
102
{ACAD_REACTORS
330
5AAA
102
}
330
5AAA
100
AcDbProxyObject
 90
      499
 91
      504
 93
      444
310
42D19858D95C185D1D195C9B90F409028333333333333E33F0000000000000F9010790141107004050150841D405064090741402480A0350
1001
ACAD
1000
AcDbSavedByObjectVersion
1070
     0
  0
ACAD_PROXY_OBJECT
  5
5AAB
102
{ACAD_REACTORS
330
5AAA
102
}
330
5AAA
100
AcDbProxyObject
 90
      499
 91
      504
 93
      380
310
41119B185D240901404333333333333E33F0000000000000F9010740A907004050150841D405064090741402480A1B50
1001
ACAD
1000
AcDbSavedByObjectVersion
1070
     0
  0
ACAD_PROXY_OBJECT
  5
5AAC
102
{ACAD_REACTORS
330
5AAA
102
}
330
5AAA
100
AcDbProxyObject
 90
      499
 91
      504
 93
      468
310
43519B185D15DA5D1A115919D95CD0140901404333333333333E33F0000000000000F90107409019070040501600405405064090741402480A1B50
1001
ACAD
1000
AcDbSavedByObjectVersion
1070
     0
  0
ACAD_PROXY_OBJECT
  5
5AAD
102
{ACAD_REACTORS
330
5AAA
102
}
330
5AAA
100
AcDbProxyObject
 90
      499
 91
      504
 93
      404
310
41D1DBDD5C985D5910240902404333333333333E33F0000000000000F9010740A9070040501641D405064090741402480A1B50
1001
ACAD
1000
AcDbSavedByObjectVersion
1070
     0
  0
ACAD_PROXY_OBJECT
  5
5AAE
102
{ACAD_REACTORS
330
5AAA
102
}
330
5AAA
100
AcDbProxyObject
 90
      499
 91
      504
 93
      492
310
4411DBDD5C985D5915DA5D1A115919D95CD0340902404333333333333E33F0000000000000F90107409019070040501600405405064090741402480A1B50
1001
ACAD
1000
AcDbSavedByObjectVersion
1070
     0
  0
ACAD_PROXY_OBJECT
  5
5AB1
102
{ACAD_REACTORS
330
5AAA
102
}
330
5AAA
100
AcDbProxyObject
 90
      499
 91
      504
 93
      476
310
41921A5919195B90640502408333333333333E33F0000000000000F901079024090700405020000000000001110200405405064090740C02480A0340
1001
ACAD
1000
AcDbSavedByObjectVersion
1070
     0
  0
ACAD_PROXY_OBJECT
  5
5ABB
102
{ACAD_REACTORS
330
5AAA
102
}
330
5AAA
100
AcDbProxyObject
 90
      499
 91
      504
 93
      428
310
42529A5D1D195C93D999914409028333333333333E33F0000000000000F9010790141107004050150A41D405064090741402480A0350
1001
ACAD
1000
AcDbSavedByObjectVersion
1070
     0
  0
ACAD_PROXY_OBJECT
  5
5AB8
102
{ACAD_REACTORS
330
5AAA
102
}
330
5AAA
100
AcDbProxyObject
 90
      499
 91
      504
 93
      444
310
42D31A5B995C185D1D195C9B90E409028333333333333E33F0000000000000F9010790141107004050750841D405064090741402483A0350
1001
ACAD
1000
AcDbSavedByObjectVersion
1070
     0
  0
ACAD_PROXY_OBJECT
  5
5ABC
102
{ACAD_REACTORS
330
5AAA
102
}
330
5AAA
100
AcDbProxyObject
 90
      499
 91
      504
 93
      444
310
42D3DD995C9A185B99D3D999915409028333333333333E33F0000000000000F9010790141107004050150941D405064090741402480A0350
1001
ACAD
1000
AcDbSavedByObjectVersion
1070
     0
  0
ACAD_PROXY_OBJECT
  5
5AB3
102
{ACAD_REACTORS
330
5AAA
102
}
330
5AAA
100
AcDbProxyObject
 90
      499
 91
      504
 93
      428
310
425499585B1A5CDD1A58D08409038333333333333E33F0000000000000F9010740A907004050150800405405064090740C02480A1B40
1001
ACAD
1000
AcDbSavedByObjectVersion
1070
     0
  0
ACAD_PROXY_OBJECT
  5
5AC2
102
{ACAD_REACTORS
330
5AAA
102
}
330
5AAA
100
AcDbProxyObject
 90
      499
 91
      504
 93
      420
310
4194DA1859195911B40902404333333333333E33F0000000000000F9010740A41107004050150800405405064090840C02480A0B40
1001
ACAD
1000
AcDbSavedByObjectVersion
1070
     0
  0
ACAD_PROXY_OBJECT
  5
5AC1
102
{ACAD_REACTORS
330
5AAA
102
}
330
5AAA
100
AcDbProxyObject
 90
      499
 91
      504
 93
      516
310
4454DA18591959081DDA5D1A08195919D95CD1A40902404333333333333E33F0000000000000F901074090142907004050250800405405064090740C02480A0B40
1001
ACAD
1000
AcDbSavedByObjectVersion
1070
     0
  0
ACAD_PROXY_OBJECT
  5
5ABE
102
{ACAD_REACTORS
330
5AAA
102
}
330
5AAA
100
AcDbProxyObject
 90
      499
 91
      504
 93
      532
310
4394DA1859195CC81BD98811DC985E5174090240C333333333333E33F0000000000000F901079024090741D01000000000000111010841D405064090740C02480A0340
1001
ACAD
1000
AcDbSavedByObjectVersion
1070
     0
  0
ACAD_PROXY_OBJECT
  5
5ABF
102
{ACAD_REACTORS
330
5AAA
102
}
330
5AAA
100
AcDbProxyObject
 90
      499
 91
      504
 93
      476
310
41D4DAD95D18DA1E51840502408333333333333E33F0000000000000F901079024090741D01000000000000111010B41D405064090741802480A0340
1001
ACAD
1000
AcDbSavedByObjectVersion
1070
     0
  0
ACAD_PROXY_OBJECT
  5
5AB7
102
{ACAD_REACTORS
330
5AAA
102
}
330
5AAA
100
AcDbProxyObject
 90
      499
 91
      504
 93
      412
310
41D51A1A58DAD95B90D409028333333333333E33F0000000000000F9010790141107004050150C41D405064090741402480A0350
1001
ACAD
1000
AcDbSavedByObjectVersion
1070
     0
  0
ACAD_PROXY_OBJECT
  5
5AB0
102
{ACAD_REACTORS
330
5AAA
102
}
330
5AAA
100
AcDbProxyObject
 90
      499
 91
      504
 93
      420
310
4255DA5C99599C985B595059028333333333333E33F0000000000000F90107901411070040501600405405064090740C02480A0340
1001
ACAD
1000
AcDbSavedByObjectVersion
1070
     0
  0
ACAD_PROXY_OBJECT
  5
5AC0
102
{ACAD_REACTORS
330
5AAA
102
}
330
5AAA
100
AcDbProxyObject
 90
      499
 91
      504
 93
      404
310
41560B54985E51940902404000000000000E03F0000000000000F9010740501907004050150841D405064090740C02480A1B40
1001
ACAD
1000
AcDbSavedByObjectVersion
1070
     0
  0
XRECORD
  5
6051
102
{ACAD_REACTORS
330
6047
102
}
330
6047
100
AcDbXrecord
340
0
  0
XRECORD
  5
6050
102
{ACAD_REACTORS
330
6047
102
}
330
6047
100
AcDbXrecord
 90
        0
  0
XRECORD
  5
606A
102
{ACAD_REACTORS
330
6047
102
}
330
6047
100
AcDbXrecord
340
2948
  0
XRECORD
  5
6067
102
{ACAD_REACTORS
330
6047
102
}
330
6047
100
AcDbXrecord
1000
DSTYLE
1002
{
1070
   171
 70
     2
1070
   143
 40
0.0394
1070
   274
 70
     2
1070
    41
 40
6.0
1070
   342
340
2AEB
1070
   271
 70
     1
1070
   278
 70
    46
1070
   341
340
2AEB
1070
   272
 70
     1
1070
    48
 40
0.1
1070
   283
 70
     1
1070
    47
 40
0.1
1070
   145
 40
1.0
1070
   340
340
10
1070
   140
 40
5.0
1070
   284
 70
     0
1002
}
  0
XRECORD
  5
6052
102
{ACAD_REACTORS
330
6047
102
}
330
6047
100
AcDbXrecord
  1
{23698909-1D67-4744-B0E2-8DE11E3ED422}
  0
XRECORD
  5
604A
102
{ACAD_REACTORS
330
6047
102
}
330
6047
100
AcDbXrecord
  1

  0
XRECORD
  5
604F
102
{ACAD_REACTORS
330
6047
102
}
330
6047
100
AcDbXrecord
 90
        0
  0
XRECORD
  5
604C
102
{ACAD_REACTORS
330
6047
102
}
330
6047
100
AcDbXrecord
340
2816
  0
XRECORD
  5
604E
102
{ACAD_REACTORS
330
6047
102
}
330
6047
100
AcDbXrecord
 90
    10781
  0
XRECORD
  5
606B
102
{ACAD_REACTORS
330
6047
102
}
330
6047
100
AcDbXrecord
340
2947
  0
XRECORD
  5
604D
102
{ACAD_REACTORS
330
6047
102
}
330
6047
100
AcDbXrecord
340
2817
  0
XRECORD
  5
6054
102
{ACAD_REACTORS
330
6047
102
}
330
6047
100
AcDbXrecord
 40
0.25
  0
XRECORD
  5
6057
102
{ACAD_REACTORS
330
6047
102
}
330
6047
100
AcDbXrecord
340
0
  0
XRECORD
  5
605D
102
{ACAD_REACTORS
330
6047
102
}
330
6047
100
AcDbXrecord
 10
0.0
 20
0.0
 30
0.0
  0
XRECORD
  5
6059
102
{ACAD_REACTORS
330
6047
102
}
330
6047
100
AcDbXrecord
 10
0.0
 20
0.0
 30
0.0
  0
XRECORD
  5
605C
102
{ACAD_REACTORS
330
6047
102
}
330
6047
100
AcDbXrecord
 10
0.0
 20
0.0
 30
0.0
  0
XRECORD
  5
605A
102
{ACAD_REACTORS
330
6047
102
}
330
6047
100
AcDbXrecord
 10
0.0
 20
0.0
 30
0.0
  0
XRECORD
  5
605B
102
{ACAD_REACTORS
330
6047
102
}
330
6047
100
AcDbXrecord
 10
0.0
 20
0.0
 30
0.0
  0
XRECORD
  5
6058
102
{ACAD_REACTORS
330
6047
102
}
330
6047
100
AcDbXrecord
 10
0.0
 20
0.0
 30
0.0
  0
XRECORD
  5
6055
102
{ACAD_REACTORS
330
6047
102
}
330
6047
100
AcDbXrecord
340
0
  0
XRECORD
  5
6056
102
{ACAD_REACTORS
330
6047
102
}
330
6047
100
AcDbXrecord
 70
     0
  0
XRECORD
  5
604B
102
{ACAD_REACTORS
330
6047
102
}
330
6047
100
AcDbXrecord
  1

  0
XRECORD
  5
6048
102
{ACAD_REACTORS
330
6047
102
}
330
6047
100
AcDbXrecord
 90
        1
  0
XRECORD
  5
6049
102
{ACAD_REACTORS
330
6047
102
}
330
6047
100
AcDbXrecord
 90
       70
  0
XRECORD
  5
6060
102
{ACAD_REACTORS
330
6047
102
}
330
6047
100
AcDbXrecord
340
0
  0
XRECORD
  5
6066
102
{ACAD_REACTORS
330
6047
102
}
330
6047
100
AcDbXrecord
 10
0.0
 20
0.0
 30
0.0
  0
XRECORD
  5
6062
102
{ACAD_REACTORS
330
6047
102
}
330
6047
100
AcDbXrecord
 10
0.0
 20
0.0
 30
0.0
  0
XRECORD
  5
6065
102
{ACAD_REACTORS
330
6047
102
}
330
6047
100
AcDbXrecord
 10
0.0
 20
0.0
 30
0.0
  0
XRECORD
  5
6063
102
{ACAD_REACTORS
330
6047
102
}
330
6047
100
AcDbXrecord
 10
0.0
 20
0.0
 30
0.0
  0
XRECORD
  5
6064
102
{ACAD_REACTORS
330
6047
102
}
330
6047
100
AcDbXrecord
 10
0.0
 20
0.0
 30
0.0
  0
XRECORD
  5
6061
102
{ACAD_REACTORS
330
6047
102
}
330
6047
100
AcDbXrecord
 10
0.0
 20
0.0
 30
0.0
  0
XRECORD
  5
605E
102
{ACAD_REACTORS
330
6047
102
}
330
6047
100
AcDbXrecord
340
0
  0
XRECORD
  5
605F
102
{ACAD_REACTORS
330
6047
102
}
330
6047
100
AcDbXrecord
 70
     0
  0
XRECORD
  5
6053
102
{ACAD_REACTORS
330
6047
102
}
330
6047
100
AcDbXrecord
  1
{D73BB0DD-3DC0-4965-92A0-36A63AB4268E}
  0
DICTIONARYVAR
  5
602E
102
{ACAD_REACTORS
330
602D
102
}
330
602D
100
DictionaryVariables
280
     0
  1
1:1
  0
DICTIONARYVAR
  5
6030
102
{ACAD_REACTORS
330
602D
102
}
330
602D
100
DictionaryVariables
280
     0
  1
Standard
  0
DICTIONARYVAR
  5
602F
102
{ACAD_REACTORS
330
602D
102
}
330
602D
100
DictionaryVariables
280
     0
  1
Standard
  0
DICTIONARYVAR
  5
6068
102
{ACAD_REACTORS
330
602D
102
}
330
602D
100
DictionaryVariables
280
     0
  1
1
  0
DICTIONARYVAR
  5
6069
102
{ACAD_REACTORS
330
602D
102
}
330
602D
100
DictionaryVariables
280
     0
  1
0
  0
DICTIONARYVAR
  5
6031
102
{ACAD_REACTORS
330
602D
102
}
330
602D
100
DictionaryVariables
280
     0
  1
0
  0
DICTIONARYVAR
  5
6032
102
{ACAD_REACTORS
330
602D
102
}
330
602D
100
DictionaryVariables
280
     0
  1
0
  0
DICTIONARY
  5
6038
102
{ACAD_REACTORS
330
6037
102
}
330
6037
100
AcDbDictionary
  0
DICTIONARY
  5
602C
102
{ACAD_REACTORS
330
602B
102
}
330
602B
100
AcDbDictionary
  0
DICTIONARY
  5
5FE3
102
{ACAD_REACTORS
330
5FE2
102
}
330
5FE2
100
AcDbDictionary
  0
DICTIONARY
  5
5FDD
102
{ACAD_REACTORS
330
5FDC
102
}
330
5FDC
100
AcDbDictionary
  0
DICTIONARY
  5
5FE0
102
{ACAD_REACTORS
330
5FDF
102
}
330
5FDF
100
AcDbDictionary
  0
DICTIONARY
  5
6071
330
5AE6
100
AcDbDictionary
280
     1
  3
ACAD_XREC_ROUNDTRIP
360
6072
  0
DICTIONARY
  5
606F
330
5AE5
100
AcDbDictionary
280
     1
  3
ACAD_XREC_ROUNDTRIP
360
6070
  0
DICTIONARY
  5
6073
330
5AE7
100
AcDbDictionary
280
     1
  3
ACAD_XREC_ROUNDTRIP
360
6074
  0
XRECORD
  5
6072
102
{ACAD_REACTORS
330
6071
102
}
330
6071
100
AcDbXrecord
102
MATERIAL
148
0.0
149
0.0
149
0.0
 93
        0
 94
      127
282
     0
 72
     1
 77
     1
171
     1
175
     1
179
     1
273
     0
  0
XRECORD
  5
6070
102
{ACAD_REACTORS
330
606F
102
}
330
606F
100
AcDbXrecord
102
MATERIAL
148
0.0
149
0.0
149
0.0
 93
        0
 94
      127
282
     0
 72
     1
 77
     1
171
     1
175
     1
179
     1
273
     0
  0
XRECORD
  5
6074
102
{ACAD_REACTORS
330
6073
102
}
330
6073
100
AcDbXrecord
102
MATERIAL
148
0.0
149
0.0
149
0.0
 93
        0
 94
      127
282
     0
 72
     1
 77
     1
171
     1
175
     1
179
     1
273
     0
  0
ENDSEC
  0
EOF
